новый адрес
Ссылка на приватное зеркало всего за 1$. Внимание количество ограничено!!!

iTunes

1+1

iTunes

мы

iTunes

1

iTunes

Чернобыль

iTunes

Ральф против интернета

Лицензия

ПШазам

Лицензия

Оно 2

Лицензия

30
pack

Вам бонус

ВАЖНО

!!Акция!!

Alien_RageХит недели

RePack

Resident Evil 21

ИГРА 18+

pack

RePack

jed

!!Акция!!

Alien_Rage

RePack

fifa19

RePack

Assassins Creed: Odyssey

RePack

NEED FOR SPEED™ PAYBACK

3 сезон

9 сезон

Бесстыжие 9 сезон

Все сериалы

все сериалы на PB.wtf

RePack

FAR CRY 5
Ребята, катастрофически не хватает 1900р. для оплаты серверов за Октябрь (всвязи с блокировками трафик упал в 3 раза), 1-2р., выручайте.
  

Великий воин Албании Скандербег (Сергей Юткевич) [1953, Албания, СССР, боевик, драма, история, SATRip от AVP Studio] pb.wtf

Великий воин Албании Скандербег через торрент pb.wtf

Размер: 1.09 GB | Добавлен: 3 года 9 мес. назад | Торрент скачан:18 раз
Скачать  

10-02-2016 09:03 Великий воин Албании Скандербег Скачать торрент  

Великий воин Албании Скандербег
Страна: СССР
Производство: Shqipëria e Re, Мосфильм

Жанр: боевик, драма, история
Год выпуска: 1953
Продолжительность: 01:53:25

Перевод: Не требуется
Cубтитры: нет
Оригинальная аудиодорожка: русский

Режиссер: Сергей Юткевич

В ролях:
Акакий Хорава, Бэса Имами, Адивие Алибали, Семён Соколовский, Верико Анджапаридзе, Георгий Черноволенко, Наим Фрашери, Борис Тенин, Николай Бубнов, Олег Жаков, Георгий Румянцев, Ваграм Папазян, Михаль Попи, Александр Вертинский, Николай Левкоев, Владимир Соловьёв, Серго Закариадзе...
Полный список актёров

Описание:
Эпизоды освободительной борьбы албанского народа во главе с Георгием Кастриотом (Скандербегом) против турецких завоевателей. XV век.
Призы МКФ в Канне—54: Международная премия («В знак признания успехов национальных кинематографий») фильму, особо отмечена режиссура (С.Юткевич), мужская роль (А.Хорава) и Специальная премия Высшей технической комиссии за совершенные технические качества съемок (Е.Андриканис).

Источник: DVB
Качество видео: SATRip
Формат видео: AVI

Видео: 640x480 (4:3), 25 fps, XviD ~ 1237 kbps avg, 0.161 bit/pixel
Аудио: 48 kHz, MP3 2.0, 128 kbps

Раздача от:
Общее
Полное имя : Velikiy.voin.Albanii.Skanderbeg.1953.SATRip-1,09_[New-team]_by_AVP_Studio.avi
Формат : AVI
Формат/Информация : Audio Video Interleave
Размер файла : 1,09 Гбайт
Продолжительность : 1 ч. 53 м.
Общий поток : 1374 Кбит/сек
Программа кодирования : VirtualDubMod 1.5.10.3 | www.virtualdub-fr.org || (build 2550/release)
Библиотека кодирования : VirtualDubMod build 2550/release

Видео
Идентификатор : 0
Формат : MPEG-4 Visual
Профиль формата : Advanced Simple@L5
Параметр BVOP формата : 1
Параметр QPel формата : Нет
Параметр GMC формата : Без точки перехода
Параметр матрицы формата : Выборочная
Идентификатор кодека : XVID
Идентификатор кодека/Подсказка : XviD
Продолжительность : 1 ч. 53 м.
Битрейт : 1237 Кбит/сек
Ширина : 640 пикселей
Высота : 480 пикселей
Соотношение сторон : 4:3
Частота кадров : 25,000 кадров/сек
Цветовое пространство : YUV
Субдискретизация насыщенности : 4:2:0
Битовая глубина : 8 бит
Тип развёртки : Прогрессивная
Метод сжатия : С потерями
Бит/(Пиксели*Кадры) : 0.161
Размер потока : 1003 Мбайт (90%)
Библиотека кодирования : XviD 1.2.1 (UTC 2008-12-04)

Аудио
Идентификатор : 1
Формат : MPEG Audio
Версия формата : Version 1
Профиль формата : Layer 3
Идентификатор кодека : 55
Идентификатор кодека/Подсказка : MP3
Продолжительность : 1 ч. 53 м.
Вид битрейта : Постоянный
Битрейт : 128 Кбит/сек
Каналы : 2 канала
Частота : 48,0 КГц
Метод сжатия : С потерями
Размер потока : 104 Мбайт (9%)
Выравнивание : Соединение по промежуткам
Продолжительность промежутка : 40 мс. (1,00 видеокадр)
Время предзагрузки промежутка : 504 мс.
Библиотека кодирования : LAME3.99r
Настройки программы : -m s -V 4 -q 2 -lowpass 17 -b 128
pb.wtf



Скачать Великий воин Албании Скандербег через торрент http://s011.radikal.ru/i316/1602/d5/b67ebe4946ce.png Скачать фильм Великий воин Албании Скандербег через торрент бесплантно в хорошем качестве Описание:Эпизоды освободительной борьбы албанского народа во главе с Георгием Кастриотом (Скандербегом) против турецких завоевателей. XV ... 10 10 1
Info! Золотая раздача, скачанное не засчитывается.
Торрент: Зарегистрирован [2016-02-10 09:03] · скачан: 18 раз
Статус: √ проверено
Размер: 1.09 GB
Как cкачать? Как скачать Великий воин Албании Скандербег через торрент | qTorrent

% Раздел Тема Автор DL S | L
Кино СССР [ 1.46 GB ] Великий воин Албании Скандербег [1953 Албания СССР история SATRip-AVC от AVP Studio] AVP Studio Скачать
1 | 0
Кино СССР [ 1.46 GB ] Великий воин Албании Скандербег [1953 Албания СССР история SATRip от AVP Studio] AVP Studio Скачать
1 | 0
    Дорогой пользователь! Огромная просьба, поблагодарите релизера, оцените раздачу и оставьте свои комментарий, если Вы скачали Великий воин Албании Скандербег через торрент бесплатно! Внесите свою лепту в развитие PiratBit!
    Комментировать посты могут только пользователи прошедшие не сложную регистрацию
    Показать сообщения:    

    Великий воин Албании Скандербег через торрент
    Скачать бесплатно Великий воин Албании Скандербег
    Великий воин Албании Скандербег скачать торрент
    Великий воин Албании Скандербег смотреть онлайн
    Cкачать фильм Великий воин Албании Скандербег бесплатно
    Великий воин Албании Скандербег скачать торрент в хорошем качестве
    Великий воин Албании Скандербег смотреть онлайн бесплатно в хорошем качестве


    Вы не можете начинать темы
    Вы не можете отвечать на сообщения
    Вы не можете редактировать свои сообщения
    Вы не можете удалять свои сообщения
    Вы не можете голосовать в опросах
    Вы не можете прикреплять файлы к сообщениям
    Вы можете скачивать файлы