Ссылка на приватное зеркало всего за 1$. Внимание количество ограничено!!!

iTunes

iTunes

iTunes

1

iTunes

iTunes

iTunes

iTunes

iTunes

30
pack

$ от Little Big

ВАЖНО

!!Акция!!

Alien_RageХит недели

RePack

Resident Evil 21

ИГРА 18+

pack

RePack

jed

!!Акция!!

Alien_Rage

RePack

fifa19

RePack

Assassins Creed: Odyssey

RePack

NEED FOR SPEED™ PAYBACK

4 сезон

9 сезон

Бесстыжие 9 сезон

Все сериалы

все сериалы на PB.wtf

RePack

FAR CRY 5
  

Холодный фронт (Роман Волобуев) [2015, триллер, мелодрама, WEB-DLRip, [Русский] iTunes pb.wtf

Холодный фронт через торрент pb.wtf

Размер: 1.37 GB | Добавлен: 4 года 3 мес. назад | Торрент скачан:534 раза
Скачать  

10-02-2016 22:02 Холодный фронт Скачать торрент  


Холодный фронт
««Every monster needs a home»»

ИНФОРМАЦИЯ:
Год выпуска:2015
Страна: Россия, Франция
Жанр: триллер, мелодрама
Продолжительность: 01:32:37
Перевод: Не требуется [Русский] [iTunes]
Режиссер: Роман Волобуев

В Ролях:


Светлана Устинова, Даша Чаруша, Александр Молочников, Полина Аскери, Кристоф Ле Тессон, Татьяна Абраменко, Александра Боярская

Описание:
Давно разлюбившая друг друга пара - Саша, девушка из богатой семьи, и ее бойфренд Илья - проводят зимние каникулы в отрезанном от внешнего мира доме на берегу океана на севере Франции.
В канун Нового года происходит два вроде бы не связанных между собой события: недалеко от дома героев прибой выбрасывает на берег тушу неизвестного науке животного, а тем же вечером Илья встречает в окрестностях Машу - русскую девушку, которая якобы случайно сошла с поезда не на той станции и которой негде ночевать. С Машей явно что-то не так, но Илья и Саша, увлеченные выяснением отношений, сперва не замечают зловещих странностей в поведении незванной гостьи.


ТЕХ.ДАННЫЕ:
Качество: WEB-DLRip
Формат: AVI
Видео: XviD, 720x304 (2.35:1), 1635 kbps, 24 fps, 0,311 bpp
Аудио: AC3 / 5.1 / 48 kHz / 384 kbps / 16 bit


General
Complete name : D:\Торенты\X0L0DHyi.FP0HT.2015.O.WEB-DLRip.avi
Format : AVI
Format/Info : Audio Video Interleave
File size : 1.37 GiB
Duration : 1h 32mn
Overall bit rate : 2 112 Kbps
Writing application : VirtualDubMod 1.5.10.3 | www.virtualdub-fr.org || (build 2550/release)
Writing library : VirtualDubMod build 2550/release

Video
ID : 0
Format : MPEG-4 Visual
Format profile : Advanced Simple@L5
Format settings, BVOP : 2
Format settings, QPel : No
Format settings, GMC : No warppoints
Format settings, Matrix : Default (MPEG)
Codec ID : XVID
Codec ID/Hint : XviD
Duration : 1h 32mn
Bit rate : 1 635 Kbps
Width : 720 pixels
Height : 304 pixels
Display aspect ratio : 2.35:1
Frame rate : 24.000 fps
Color space : YUV
Chroma subsampling : 4:2:0
Bit depth : 8 bits
Scan type : Progressive
Compression mode : Lossy
Bits/(Pixel*Frame) : 0.311
Stream size : 1.06 GiB (77%)
Writing library : XviD 1.2.1 (UTC 2008-12-04)

Audio
ID : 1
Format : AC-3
Format/Info : Audio Coding 3
Mode extension : CM (complete main)
Codec ID : 2000
Duration : 1h 32mn
Bit rate mode : Constant
Bit rate : 384 Kbps
Channel(s) : 6 channels
Channel positions : Front: L C R, Side: L R, LFE
Sampling rate : 48.0 KHz
Bit depth : 16 bits
Compression mode : Lossy
Stream size : 254 MiB (18%)
Alignment : Split accross interleaves
Скриншоты:

© Оформление by .::Ворон::.
pb.wtf
!Ворон писал(а):

Увы и ах!!! Есть реклама казино. Эти горе "пираты" уже и в лицуху начали пхать её.



Скачать Холодный фронт через торрент http://pic.kartinco.top/images/6/ordi9.jpg Скачать фильм Холодный фронт через торрент бесплантно в хорошем качестве Описание: Давно разлюбившая друг друга пара - Саша, девушка из богатой семьи, и ее бойфренд Илья - проводят зимние каникулы в отрезанном от ... 7.8 10 17
Торрент: Зарегистрирован [2016-02-10 22:02] · скачан: 534 раз
Статус: T временная
Размер: 1.37 GB
Как cкачать? Как скачать Холодный фронт через торрент | qTorrent

28-11-2019 20:33  

Отключить всю рекламу на сайте

10-02-2016 22:28 Холодный фронт Скачать торрент  

Увы и ах!!! Есть реклама казино. Эти горе "пираты" уже и в лицуху начали пхать её.
эх pb.wtf



11-02-2016 08:08 Холодный фронт Скачать торрент  

Цитата:

Эти горе "пираты" уже и в лицуху начали пхать её

В свои фильмы пускай пихают, все равно ничего нормального снять не могутpb.wtf



11-02-2016 16:44 Холодный фронт Скачать торрент  

killermax2013 писал(а):

Цитата:

Эти горе "пираты" уже и в лицуху начали пхать её

В свои фильмы пускай пихают, все равно ничего нормального снять не могут

Ха-ха, да судя по фоткам "в ролях" видно кого они сняли... чтобы попихать.. :))
ну и в фильм потом, раз пообещали... :) )))pb.wtf



13-02-2016 15:58 Холодный фронт Скачать торрент  

Спасибо за раздачу. Давно такого ОВНА не смотрел! Я думаю что большинство со мной согласиться. Полтора часа ни о чём.pb.wtf



    Дорогой пользователь! Огромная просьба, поблагодарите релизера, оцените раздачу и оставьте свои комментарий, если Вы скачали Холодный фронт через торрент бесплатно! Внесите свою лепту в развитие PiratBit!
    Комментировать посты могут только пользователи прошедшие не сложную регистрацию
    Показать сообщения:    

    Холодный фронт через торрент
    Скачать бесплатно Холодный фронт
    Холодный фронт скачать торрент
    Холодный фронт смотреть онлайн
    Cкачать фильм Холодный фронт бесплатно
    Холодный фронт скачать торрент в хорошем качестве
    Холодный фронт смотреть онлайн бесплатно в хорошем качестве


    Вы не можете начинать темы
    Вы не можете отвечать на сообщения
    Вы не можете редактировать свои сообщения
    Вы не можете удалять свои сообщения
    Вы не можете голосовать в опросах
    Вы не можете прикреплять файлы к сообщениям
    Вы можете скачивать файлы