Ссылка на приватное зеркало нашего сайта всего за 1$. Внимание количество ограничено!!!

2 сезон

iTunes

1 сезон

1

iTunes

iTunes

iTunes

1 сезон

RePack

30

ИГРА 18+

pack

ВАЖНО

!!Акция!!

Alien_RageХит недели

RePack

MK11
pack

Забери бонус

RePack

jed

!!Акция!!

Alien_Rage

RePack

fifa19

RePack

Assassins Creed: Odyssey

RePack

NEED FOR SPEED™ PAYBACK

4 сезон

9 сезон

Бесстыжие 9 сезон

Все сериалы

все сериалы на PB.wtf

RePack

FAR CRY 5
  

Бабник / Spread (Дэвид Маккензи ) [2009, драма, мелодрама, комедия, BDRip 720p от _denis_100 / NNNB] Дублированный pb.wtf

Бабник через торрент pb.wtf

Размер: 6.09 GB | Добавлен: 4 года 8 мес. назад | Торрент скачан:271 раз
Скачать  

11-02-2016 15:30 Бабник Скачать торрент  

Бабник / Spread
«Доставляю удовольствие. Дорого»


Год выпуска: 2009
Страна: США
Жанр: драма, мелодрама, комедия
Продолжительность: 01:37:04
Перевод: Дублированный,
Субтитры: английские
Режиссер: Дэвид Маккензи
В ролях: Эштон Кутчер , Энн Хеч , Маргарита Левиева , Себастьян Стэн , Эшли Джонсон , Соня Роквэлл , Рейчел Блэнчард , Шэйн Бролли , Эрик Бальфур , Мария Кончита Алонсо , Дерек Картер , Джордан Блэк
Описание:
Никки молод, неотразим и пользуется безотказным вниманием представительниц противоположного пола. Его роман с Самантой основан исключительно на взаимном интересе. Никки интересует ее кредитная карточка и шикарный особняк, а успешную, но одинокую Саманту - безудержный дикий секс. Но когда Никки встречает Хизер, у циничного жиголо что-то переключается в голове и в сердце...

R - Лицам до 17 лет обязательно присутствие взрослого
Качество: BDRip 720p
Контейнер (Расширение): MKV
Видео: 1280x534, 7525 Кбит/сек, 23,976 кадр/сек, 0,459 Бит/[Пиксели*Кадры]
Аудио №1: русский / AC3 / 5.1 / 48 kHz / 640 kbps / 16 bit |Дублированный|
Аудио №2: английский / AC3 / 5.1 / 48 kHz / 640 kbps / 16 bit
Навигация по главам(Чаптеры): естьАвтор рипа: Сообщество:

Код:

Format                                   : Matroska
Format version                           : Version 2
File size                                : 6.09 GiB
Duration                                 : 1h 37mn
Overall bit rate                         : 8 984 Kbps
Movie name                               : Spread.(2009).BDRip.720p.[denis100]
Encoded date                             : UTC 2016-02-11 15:09:56
Writing application                      : mkvmerge v5.8.0 ('No Sleep / Pillow') built on Sep  2 2012 15:37:04
Writing library                          : libebml v1.2.3 + libmatroska v1.3.0

Video
ID                                       : 1
Format                                   : AVC
Format/Info                              : Advanced Video Codec
Format profile                           : High@L4.1
Format settings, CABAC                   : Yes
Format settings, ReFrames                : 11 frames
Codec ID                                 : V_MPEG4/ISO/AVC
Duration                                 : 1h 37mn
Bit rate                                 : 7 525 Kbps
Width                                    : 1 280 pixels
Height                                   : 534 pixels
Display aspect ratio                     : 2.40:1
Frame rate                               : 23.976 fps
Color space                              : YUV
Chroma subsampling                       : 4:2:0
Bit depth                                : 8 bits
Scan type                                : Progressive
Bits/(Pixel*Frame)                       : 0.459
Stream size                              : 5.10 GiB (84%)
Title                                    : Spread.(2009).BDRip.720p.[denis100]
Writing library                          : x264 core 148 r2638 7599210
Encoding settings                        : cabac=1 / ref=11 / deblock=1:-3:-3 / analyse=0x3:0x133 / me=umh / subme=11 / psy=1 / psy_rd=1.00:0.15 / mixed_ref=1 / me_range=48 / chroma_me=1 / trellis=2 / 8x8dct=1 / cqm=0 / deadzone=21,11 / fast_pskip=0 / chroma_qp_offset=-3 / threads=6 / lookahead_threads=1 / sliced_threads=0 / nr=0 / decimate=1 / interlaced=0 / bluray_compat=0 / constrained_intra=0 / bframes=10 / b_pyramid=2 / b_adapt=2 / b_bias=0 / direct=3 / weightb=1 / open_gop=0 / weightp=2 / keyint=240 / keyint_min=23 / scenecut=40 / intra_refresh=0 / rc=crf / mbtree=0 / crf=16.5 / qcomp=0.60 / qpmin=0 / qpmax=69 / qpstep=4 / ip_ratio=1.40 / pb_ratio=1.30 / aq=1:0.70
Language                                 : English
Default                                  : Yes
Forced                                   : No

Audio #1
ID                                       : 2
Format                                   : AC-3
Format/Info                              : Audio Coding 3
Mode extension                           : CM (complete main)
Codec ID                                 : A_AC3
Duration                                 : 1h 37mn
Bit rate mode                            : Constant
Bit rate                                 : 640 Kbps
Channel(s)                               : 6 channels
Channel positions                        : Front: L C R, Side: L R, LFE
Sampling rate                            : 48.0 KHz
Bit depth                                : 16 bits
Compression mode                         : Lossy
Stream size                              : 444 MiB (7%)
Title                                    : Дублированный
Language                                 : Russian
Default                                  : Yes
Forced                                   : No

Audio #2
ID                                       : 3
Format                                   : AC-3
Format/Info                              : Audio Coding 3
Mode extension                           : CM (complete main)
Codec ID                                 : A_AC3
Duration                                 : 1h 37mn
Bit rate mode                            : Constant
Bit rate                                 : 640 Kbps
Channel(s)                               : 6 channels
Channel positions                        : Front: L C R, Side: L R, LFE
Sampling rate                            : 48.0 KHz
Bit depth                                : 16 bits
Compression mode                         : Lossy
Stream size                              : 444 MiB (7%)
Language                                 : English
Default                                  : No
Forced                                   : No

Text
ID                                       : 4
Format                                   : UTF-8
Codec ID                                 : S_TEXT/UTF8
Codec ID/Info                            : UTF-8 Plain Text
Language                                 : English
Default                                  : No
Forced                                   : No

Menu
00:00:00.000                             : en:00:00:00.000
00:06:24.967                             : en:00:06:24.967
00:12:43.387                             : en:00:12:43.387
00:18:48.627                             : en:00:18:48.627
00:24:45.817                             : en:00:24:45.817
00:31:54.996                             : en:00:31:54.996
00:37:45.721                             : en:00:37:45.721
00:44:52.189                             : en:00:44:52.189
00:51:32.547                             : en:00:51:32.547
00:57:57.724                             : en:00:57:57.724
01:04:02.296                             : en:01:04:02.296
01:11:51.306                             : en:01:11:51.306
01:20:50.262                             : en:01:20:50.262
01:26:48.745                             : en:01:26:48.745
01:30:50.027                             : en:01:30:50.027

x264 [info]: frame I:834 Avg QP:16.15 size:134286
x264 [info]: frame P:25819 Avg QP:17.43 size: 70742
x264 [info]: frame B:112989 Avg QP:19.61 size: 32469
pb.wtf



Скачать Бабник через торрент http://i74.fastpic.ru/big/2016/0211/0a/f31e950b9d083072f463f92333a0bb0a.png Скачать фильм Бабник через торрент бесплантно в хорошем качестве Описание:Никки молод, неотразим и пользуется безотказным вниманием представительниц противоположного пола. Его роман с Самантой основан ... 7.4 10 7
Info! Золотая раздача, скачанное не засчитывается.
Торрент: Зарегистрирован [2016-02-11 15:30] · скачан: 271 раз
Статус: √ проверено
Размер: 6.09 GB
Как cкачать? Как скачать Бабник через торрент | qTorrent

28-11-2019 20:33  

Отключить всю рекламу на сайте

14-02-2016 20:01 Бабник Скачать торрент  

Хороший фильм сильно понравился спасибочки)pb.wtf



    Дорогой пользователь! Огромная просьба, поблагодарите релизера, оцените раздачу и оставьте свои комментарий, если Вы скачали Бабник через торрент бесплатно! Внесите свою лепту в развитие PiratBit!
    Комментировать посты могут только пользователи прошедшие не сложную регистрацию
    Показать сообщения:    

    Бабник через торрент
    Скачать бесплатно Бабник
    Бабник скачать торрент
    Бабник смотреть онлайн
    Cкачать фильм Бабник бесплатно
    Бабник скачать торрент в хорошем качестве
    Бабник смотреть онлайн бесплатно в хорошем качестве


    Вы не можете начинать темы
    Вы не можете отвечать на сообщения
    Вы не можете редактировать свои сообщения
    Вы не можете удалять свои сообщения
    Вы не можете голосовать в опросах
    Вы не можете прикреплять файлы к сообщениям
    Вы можете скачивать файлы