Ссылка на приватное зеркало нашего сайта всего за 1$. Внимание количество ограничено!!!

2 сезон

iTunes

1 сезон

1

iTunes

iTunes

iTunes

1 сезон

RePack

30

ИГРА 18+

pack

ВАЖНО

!!Акция!!

Alien_RageХит недели

RePack

MK11
pack

Забери бонус

RePack

jed

!!Акция!!

Alien_Rage

RePack

fifa19

RePack

Assassins Creed: Odyssey

RePack

NEED FOR SPEED™ PAYBACK

4 сезон

9 сезон

Бесстыжие 9 сезон

Все сериалы

все сериалы на PB.wtf

RePack

FAR CRY 5
  

Воронины / Сезон: 16 / Серии 1 -20 из 20 (Александр Жигалкин, Леонид Коновалов, Георгий Дронов) [2016, Россия, комедия, семейный, SATRip) pb.wtf

Воронины через торрент pb.wtf

Размер: 6.49 GB | Добавлен: 4 года 6 мес. назад | Торрент скачан:274 раза
Скачать  

12-02-2016 02:04 Воронины Скачать торрент  

Воронины
«Не проворонь!»

  • Год выпуска: 2016
  • Страна: Россия
  • Жанр: комедия, семейный
  • Продолжительность: 00:23:52(Серия)
  • Перевод: Не требуется
  • Перевод: Присутствует реклама
  • Режиссер: Александр Жигалкин, Леонид Коновалов, Георгий Дронов
  • В ролях:

    Георгий Дронов (Костя Воронин), Станислав Дужников (Леня Воронин), Екатерина Волкова (Вера Воронина), Борис Клюев (Николай Петрович Воронин), Анна Фроловцева (Галина Ивановна Воронина), Юлия Куварзина (Анастасия), Мария Ильюхина (Маша), Кирилл Михин (Кирилл), Филипп Михин (Филипп), Олег Кассин (Миша, друг Кости), Виктория Лукина (официантка Ангелина), Александр Гришаев (Вадим)

  • Описание:
    В обычном доме в трехкомнатной квартире живет молодая семья: Костя, его жена Вера и их дети – пятилетняя дочка и два маленьких сына-близнеца. Костя – известный спортивный журналист. Жена Вера любит его и ведет все хозяйство, а дети не доставляют много хлопот. Гораздо больше хлопот им приносят родители Кости, которые живут напротив на той же лестничной площадке… Воронины – это история о том, что иногда родственники бывают слишком близкими.
  • Рейтинг:



  • Качество: SATRip
  • Формат: :AVI
  • Видео кодек: XviD
  • Аудио кодек: MP3
  • Видео: 1800 Кбит/сек, 720*528 (4:3), в 25,000 кадров/сек, MPEG-4 Visual (XviD)
  • Аудио: 128 Кбит/сек, 48,0 КГц, 2 канала, MPEG Audio (MP3)
  • Релиз от: GEKADOL

    Код:

    Внимание! Раздача ведётся путём добавления новых серий; при каждом добавлении создаётся новый торрент. Чтобы начать докачку новой серии, пользователям необходимо сделать следующее:
    (1) остановить скачивание,
    (2) удалить старый торрент у себя из клиента (старые серии удалять не надо),
    (3) скачать новый торрент и запустить его у себя в клиенте вместо старого, при этом указать клиенту путь в старую папку куда и должно происходить скачивание новых серий.
    Ваш клиент при этом должен произвести хеширование (проверку) старой папки (если не производит сам - помогите ему сделать это), и будет докачивать только те серии которых у вас ещё нет. Старые серии при этом не удаляются, а продолжают раздаваться!
    Eсли вы уже удалили старые серии, то предотвратить повторную закачку старых серий можно, отжав галочку в соответствующих местах при запуске нового торрента. По возможности, желательно не удалять старые серии как можно дольше чтобы релизёр не столько продолжал раздавать старые серии, а смог сконцентрироваться на новых.


    Код:

    Общее
    Полное имя                               : H:\Voroniny.2016\09.serija.avi
    Формат                                   : AVI
    Формат/Информация                        : Audio Video Interleave
    Размер файла                             : 338 Мбайт
    Продолжительность                        : 24 м.
    Общий поток                              : 1938 Кбит/сек
    Программа кодирования                    : VirtualDubMod 1.5.10.3 | www.virtualdub-fr.org || (build 2550/release)
    Библиотека кодирования                   : VirtualDubMod build 2550/release

    Видео
    Идентификатор                            : 0
    Формат                                   : MPEG-4 Visual
    Профиль формата                          : Advanced Simple@L5
    Параметр BVOP формата                    : 2
    Параметр QPel формата                    : Нет
    Параметр GMC формата                     : Без точки перехода
    Параметр матрицы формата                 : Default (MPEG)
    Идентификатор кодека                     : XVID
    Идентификатор кодека/Подсказка           : XviD
    Продолжительность                        : 24 м.
    Битрейт                                  : 1800 Кбит/сек
    Ширина                                   : 720 пикселей
    Высота                                   : 528 пикселя
    Соотношение сторон                       : 4:3
    Частота кадров                           : 25,000 кадров/сек
    Цветовое пространство                    : YUV
    Субдискретизация насыщенности            : 4:2:0
    Битовая глубина                          : 8 бит
    Тип развёртки                            : Прогрессивная
    Метод сжатия                             : С потерями
    Бит/(Пиксели*Кадры)                      : 0.184
    Размер потока                            : 314 Мбайт (93%)
    Библиотека кодирования                   : XviD 1.2.1 (UTC 2008-12-04)

    Аудио
    Идентификатор                            : 1
    Формат                                   : MPEG Audio
    Версия формата                           : Version 1
    Профиль формата                          : Layer 3
    Идентификатор кодека                     : 55
    Идентификатор кодека/Подсказка           : MP3
    Продолжительность                        : 24 м.
    Вид битрейта                             : Постоянный
    Битрейт                                  : 128 Кбит/сек
    Каналы                                   : 2 канала
    Частота                                  : 48,0 КГц
    Метод сжатия                             : С потерями
    Размер потока                            : 22,3 Мбайт (7%)
    Выравнивание                             : Соединение по промежуткам
    Продолжительность промежутка             : 40  мс. (1,00 видеокадр)
    Время предзагрузки промежутка            : 504  мс.
    Библиотека кодирования                   : LAME3.99r
    Настройки программы                      : -m s -V 4 -q 2 -lowpass 17 -b 128


    Скриншоты:
    скриншот   скриншот   скриншот   скриншот   скриншот   скриншот   скриншот  
    скриншот  

    Раздача ведётся путём добавления новых серий. Добавлена 20 серия (05.04.2016).Просьба перекачать торрент файл.

    pb.wtf



  • Скачать Воронины через торрент http://pic1.kartinco.top/images/10/1datr.jpg Скачать фильм Воронины через торрент бесплантно в хорошем качестве Описание: В обычном доме в трехкомнатной квартире живет молодая семья: Костя, его жена Вера и их дети – пятилетняя дочка и два маленьких ... 9.2 10 26
    Info! Золотая раздача, скачанное не засчитывается.
    Торрент: Зарегистрирован [2016-04-05 11:13] · скачан: 274 раз
    Статус: √ проверено
    Размер: 6.49 GB
    Как cкачать? Как скачать Воронины через торрент | qTorrent

    % Раздел Тема Автор DL S | L
    Наши сериалы [ 7.33 GB ] Воронины / Сезон: 17 / Серии 1-25 из 25 [2016 Россия SATRip] GEKADOL Скачать
    1 | 0


    Последний раз редактировалось: GEKADOL (2016-04-05 11:13), всего редактировалось 7 раз(а)

    28-11-2019 20:33  

    Отключить всю рекламу на сайте

    29-03-2016 13:07 Воронины Скачать торрент  

    Скрины из кухни!pb.wtf



    04-04-2016 10:54 Воронины Скачать торрент  

    Leon74 писал(а):

    Скрины из кухни!

    Ща вроде те))) pb.wtf



      Дорогой пользователь! Огромная просьба, поблагодарите релизера, оцените раздачу и оставьте свои комментарий, если Вы скачали Воронины через торрент бесплатно! Внесите свою лепту в развитие PiratBit!
      Комментировать посты могут только пользователи прошедшие не сложную регистрацию
      Показать сообщения:    

      Воронины через торрент
      Скачать бесплатно Воронины
      Воронины скачать торрент
      Воронины смотреть онлайн
      Cкачать фильм Воронины бесплатно
      Воронины скачать торрент в хорошем качестве
      Воронины смотреть онлайн бесплатно в хорошем качестве


      Вы не можете начинать темы
      Вы не можете отвечать на сообщения
      Вы не можете редактировать свои сообщения
      Вы не можете удалять свои сообщения
      Вы не можете голосовать в опросах
      Вы не можете прикреплять файлы к сообщениям
      Вы можете скачивать файлы