Достать ножи: Стеклянная луковица

MVO

Добыча

Дубляж

Уэнсдэй

1 сезон

Тор

Дубляж

13 клиническая

1 сезон

Жестокая ночь

MVO

Одни из нас

1 сезон

Deluxe

pack

Рекомендуем

30

Пиратка

ВАЖНО

ВАЖНО

Ghostwire

Пиратка

jed

RePack

nioh2

RePack

RDR2

RePack

NEED FOR SPEED™ PAYBACK

RePack

скачать торрент

Кинопоиск HD

Острые козырьки 6 сезон

6 сезон

FAR CRY 6

RePack

скачать торрент

Лицензия

скачать торрент

MVO

1

1 сезон

скачать торрент

1 сезон

скачать торрент

Лицензия

  

Жена путешественника во времени / The Time Traveler's Wife (Роберт Швентке) [2009, фантастика, фэнтези, драма, мелодрама, BDRip 1080p ] Дубляж, AVO

Жена путешественника во времени через торрент pb.wtf

Размер: 12.1 GB | Добавлен: 6 лет 11 мес. назад | Торрент скачан:93 раза
Смотреть онлайн | Скачать | Поддержите нас   

12-02-2016 09:44 Жена путешественника во времени Скачать торрент  

Название: Жена путешественника во времени
Оригинальное название: The Time Traveler's Wife
Год выпуска: 2009
Страна: США
Жанр: фантастика, фэнтези, драма, мелодрама
Продолжительность: 01:47:27
Перевод: дублированный, авторский

Режиссёр: Роберт Швентке

В ролях: Рэйчел МакАдамс, Мишель Нолден, Алекс Феррис, Арлисс Ховард, Эрик Бана, Кэтерин Троуэлл, Барт Бедфорд, Эстер Джан, Мэтт Бирман, Крэйг Снойер, Карли Стрит, Ромен Тангсубутра, Бруклин Пру, Джейн МакЛин, Рон Ливингстон, Брайан Биссон

Описание: Они познакомились, когда ей было шесть, а ему — тридцать шесть. Они поженились, когда ей было двадцать три, а ему тридцать один. Потому что Генри страдает редким генетическим заболеванием — синдромом перемещения во времени; его исчезновения из жизни Клэр непредсказуемы, появления — комичны, травматичны и трагичны одновременно... Фильм снят по мотивам романа Одри Ниффенеггер «Жена путешественника во времени» (The Time Traveler`s Wife, 2003).



Качество: BDRip 1080p Сравнение с исходником
Формат: MKV
Видео: MPEG-4 AVC, 12.7 Mбит/с, 1920x800, 23,976 кадра/с
Аудио 1: русский, AC3, 448 kbps, 6 ch, 48 kHz [дублированный]
Аудио 2: русский, DTS, 1509 kbps, 6 ch, 48 kHz [авторский, Юрий Сербин]
Аудио 3: английский, DTS, 1509 kbps, 6 ch, 48 kHz [оригинал]
Субтитры 1: русские (надписи)
Субтитры 2: русские
Субтитры 3: английские
Общее
Уникальный идентификатор : 253209403163712605811184433385302611020 (0xBE7E5B6FD7DA5642A1A75E5E799B544C)
Полное имя : D:\Video\Жена путешественника во времени.2009.BDRip.1080p.mkv
Формат : Matroska
Версия формата : Version 4 / Version 2
Размер файла : 12,1 Гбайт
Продолжительность : 1 ч. 47 м.
Общий поток : 16,1 Мбит/сек
Дата кодирования : UTC 2016-02-12 03:37:16
Программа кодирования : mkvmerge v8.2.0 ('World of Adventure') 64bit
Библиотека кодирования : libebml v1.3.1 + libmatroska v1.4.2

Видео
Идентификатор : 1
Формат : AVC
Формат/Информация : Advanced Video Codec
Профиль формата : [email protected]
Параметр CABAC формата : Да
Параметр ReFrames формата : 4 кадра
Идентификатор кодека : V_MPEG4/ISO/AVC
Продолжительность : 1 ч. 47 м.
Битрейт : 12,7 Мбит/сек
Ширина : 1920 пикселей
Высота : 800 пикселей
Соотношение сторон : 2,40:1
Режим частоты кадров : Постоянный
Частота кадров : 23,976 (24000/1001) кадра/сек
Цветовое пространство : YUV
Субдискретизация насыщенности : 4:2:0
Битовая глубина : 8 бит
Тип развёртки : Прогрессивная
Бит/(Пиксели*Кадры) : 0.344
Размер потока : 9,50 Гбайт (78%)
Библиотека кодирования : x264 core 146 r2538 121396c
Настройки программы : cabac=1 / ref=4 / deblock=1:-1:-1 / analyse=0x3:0x113 / me=umh / subme=10 / psy=1 / psy_rd=1.00:0.15 / mixed_ref=1 / me_range=32 / chroma_me=1 / trellis=2 / 8x8dct=1 / cqm=0 / deadzone=21,11 / fast_pskip=1 / chroma_qp_offset=-3 / threads=6 / lookahead_threads=1 / sliced_threads=0 / nr=0 / decimate=1 / interlaced=0 / bluray_compat=0 / constrained_intra=0 / bframes=11 / b_pyramid=2 / b_adapt=2 / b_bias=0 / direct=1 / weightb=1 / open_gop=0 / weightp=2 / keyint=230 / keyint_min=23 / scenecut=40 / intra_refresh=0 / rc_lookahead=40 / rc=crf / mbtree=0 / crf=17.7 / qcomp=0.60 / qpmin=0 / qpmax=69 / qpstep=4 / vbv_maxrate=40000 / vbv_bufsize=50000 / crf_max=0.0 / nal_hrd=none / filler=0 / ip_ratio=1.40 / pb_ratio=1.30 / aq=1:1.00
Язык : English
Default : Да
Forced : Нет

Аудио #1
Идентификатор : 2
Формат : AC-3
Формат/Информация : Audio Coding 3
Расширение режима : CM (complete main)
Параметр Endianness формата : Big
Идентификатор кодека : A_AC3
Продолжительность : 1 ч. 47 м.
Вид битрейта : Постоянный
Битрейт : 448 Кбит/сек
Каналы : 6 каналов
Расположение каналов : Front: L C R, Side: L R, LFE
Частота : 48,0 КГц
Частота кадров : 31,250 кадров/сек (1536 spf)
Метод сжатия : С потерями
Размер потока : 344 Мбайт (3%)
Заголовок : Дубляж
Язык : Russian
Default : Да
Forced : Нет

Аудио #2
Идентификатор : 3
Формат : DTS
Формат/Информация : Digital Theater Systems
Режим : 16
Параметр Endianness формата : Big
Идентификатор кодека : A_DTS
Продолжительность : 1 ч. 47 м.
Вид битрейта : Постоянный
Битрейт : 1509 Кбит/сек
Каналы : 6 каналов
Расположение каналов : Front: L C R, Side: L R, LFE
Частота : 48,0 КГц
Частота кадров : 93,750 кадра/сек (512 spf)
Битовая глубина : 24 бит
Метод сжатия : С потерями
Размер потока : 1,13 Гбайт (9%)
Заголовок : AVO (Юрий Сербин)
Язык : Russian
Default : Нет
Forced : Нет

Аудио #3
Идентификатор : 4
Формат : DTS
Формат/Информация : Digital Theater Systems
Режим : 16
Параметр Endianness формата : Big
Идентификатор кодека : A_DTS
Продолжительность : 1 ч. 47 м.
Вид битрейта : Постоянный
Битрейт : 1509 Кбит/сек
Каналы : 6 каналов
Расположение каналов : Front: L C R, Side: L R, LFE
Частота : 48,0 КГц
Частота кадров : 93,750 кадра/сек (512 spf)
Битовая глубина : 24 бит
Метод сжатия : С потерями
Размер потока : 1,13 Гбайт (9%)
Заголовок : Original
Язык : English
Default : Нет
Forced : Нет

Текст #1
Идентификатор : 5
Формат : UTF-8
Идентификатор кодека : S_TEXT/UTF8
Идентификатор кодека/Информация : UTF-8 Plain Text
Продолжительность : 51 м.
Битрейт : 0 бит/сек
Count of elements : 5
Размер потока : 156 байт (0%)
Заголовок : русский (надписи)
Язык : Russian
Default : Да
Forced : Да

Текст #2
Идентификатор : 6
Формат : UTF-8
Идентификатор кодека : S_TEXT/UTF8
Идентификатор кодека/Информация : UTF-8 Plain Text
Продолжительность : 1 ч. 40 м.
Битрейт : 66 бит/сек
Count of elements : 991
Размер потока : 49,1 Кбайт (0%)
Заголовок : русский
Язык : Russian
Default : Нет
Forced : Нет

Текст #3
Идентификатор : 7
Формат : UTF-8
Идентификатор кодека : S_TEXT/UTF8
Идентификатор кодека/Информация : UTF-8 Plain Text
Продолжительность : 1 ч. 38 м.
Битрейт : 44 бит/сек
Count of elements : 999
Размер потока : 32,0 Кбайт (0%)
Заголовок : английский
Default : Нет
Forced : Нет



Скачать Жена путешественника во времени через торрент http://i016.radikal.ru/1602/5c/97528fcf339b.jpg Скачать, смотреть онлайн Жена путешественника во времени бесплантно в хорошем качестве Описание: Они познакомились, когда ей было шесть, а ему — тридцать шесть. Они поженились, когда ей было двадцать три, а ему тридцать один. ... 8.9 10 8
Info! Золотая раздача, скачанное не засчитывается.
Торрент: Зарегистрирован [2016-02-12 09:44] · скачан: 93 раз
Статус: √ проверено
Размер: 12.1 GB
Как cкачать? Как скачать Жена путешественника во времени через торрент | UTorrent

28-11-2019 20:33  


Отключить вcю реклaмy на сайте, в т.ч. и в плеере онлайн просмотра!

12-02-2016 18:05 Жена путешественника во времени Скачать торрент  

Отличный фильм, рекомендую



    Дорогой пользователь! Огромная просьба, поблагодарите релизера, оцените раздачу и оставьте свои комментарий, если Вы скачали Жена путешественника во времени через торрент бесплатно!!
    Комментировать посты могут только пользователи прошедшие не сложную регистрацию
    Показать сообщения:    


    Жена путешественника во времени через торрент
    Скачать бесплатно Жена путешественника во времени
    Жена путешественника во времени скачать торрент
    Жена путешественника во времени смотреть онлайн
    Cкачать фильм Жена путешественника во времени бесплатно
    Жена путешественника во времени скачать торрент в хорошем качестве
    Жена путешественника во времени смотреть онлайн бесплатно в хорошем качестве
    Вы не можете начинать темы
    Вы не можете отвечать на сообщения
    Вы не можете редактировать свои сообщения
    Вы не можете удалять свои сообщения
    Вы не можете голосовать в опросах
    Вы не можете прикреплять файлы к сообщениям
    Вы можете скачивать файлы
    Жена путешественника во времени / The Time Traveler's Wife [2009, фантастика, фэнтези, драма, мелодрама, BDRip 1080p ] Дубляж, AVO смотреть онлайн, скачать торрент picoco.icu