2 сезон

iTunes

MVO

1

2 сезон

iTunes

iTunes

1 сезон

RePack

30

Новинка

ВАЖНО

ИГРА 18+

pack

RePack

MK11
pack

Легкие деньги

RePack

jed

RePack

fifa19

RePack

RDR2

RePack

NEED FOR SPEED™ PAYBACK

4 сезон

9 сезон

Бесстыжие 9 сезон

Все сериалы

все сериалы на PB.wtf

RePack

FAR CRY 5

Anonymous, добрый день, мы не успеваем собрать деньги на оплату серверов за декабрь и январь, помогите нам пожалуйста в это трудное время. В качестве благодарности мы отключим Вам всю рекламу на сайте (укажите свой ник в строку Ваше имя)!

×
  
Magnet ссылка

Крид: Наследие Рокки / Creed (Райан Куглер / Ryan Coogler) [2015, драма, спорт, BDRip-AVC от potroks] MVO [IDEAFILM] Без рекламы pb.wtf

Крид: Наследие Рокки через торрент pb.wtf

Размер: 1.46 GB | Добавлен: 4 года 11 мес. назад | Торрент скачан:559 раз
Скачать  

13-02-2016 04:57 Крид: Наследие Рокки Скачать торрент  

Крид: Наследие Рокки / Creed
«Your legacy is more than a name»
Год выпуска: 2015
Страна: США / Warner Bros. Pictures, Metro-Goldwyn-Mayer (MGM), New Line Cinema...
Жанр: драма, спорт
Продолжительность: 02:13:10
Перевод: Профессиональный (многоголосый) [IDEAFILM]
Субтитры: русские (форс.)
Навигация по главам: есть
Режиссер: Райан Куглер / Ryan Coogler
В ролях:

Майкл Б. Джордан (Adonis Johnson), Сильвестр Сталлоне (Rocky Balboa), Тесса Томпсон (Bianca), Филисия Рашад (Mary Anne Creed), Андре Уорд (Danny «Stuntman» Wheeler), Тони Белью («Pretty» Ricky Conlan), Ричи Костер (Pete Sporino), Джейкоб ’Стич’ Дюран (Stitch), Грэм МакТавиш (Tommy Holiday), Malik Bazille (Amir), Ricardo McGill (Padman), Габриэль Росадо (Leo «The Lion» Sporino)
Описание: В центре внимания сын Аполло Крида - первого серьезного соперника Рокки Бальбоа на ринге, впоследствии ставшего лучшим другом героя. Талант отца в какой-то момент проявляется и в Криде-младшем, и юноша отправляется на поиски наставника, коим для него в итоге становится постаревший Рокки, тоже не слишком жаждущий возвращаться к старым делам. Даже в качестве тренера.

Качество: BDRip-AVC
Формат: MKV
Видео кодек: AVC
Аудио кодек: AC3
Видео: 984x410 (2.40:1), 1378 kbps, 23,976 fps, 0,142 bit/pixel
Аудио: АC3 / 2.0 / 48 kHz / 192 kbps / 16 bit

Релиз группы:
Автор рипа: potroks

Код:

Общее
Уникальный идентификатор : 209847846624197419381019231611671525792 (0x9DDF39A3F2416C0CA20B3CDFEAD7B9A0)
Полное имя : Krid.2015.RUS.BDRip.x264.-HELLYWOOD.mkv
Формат : Matroska
Версия формата : Version 4 / Version 2
Размер файла : 1,46 Гбайт
Продолжительность : 2 ч. 13 м.
Общий поток : 1568 Кбит/сек
Название фильма : Creed (2015) - HELLYWOOD
Дата кодирования : UTC 2016-02-14 13:54:07
Программа кодирования : mkvmerge v5.9.0 ('On The Loose') built on Dec 15 2012 16:39:58
Библиотека кодирования : libebml v1.3.0 + libmatroska v1.4.0

Видео
Идентификатор : 1
Формат : AVC
Формат/Информация : Advanced Video Codec
Профиль формата : High@L4.1
Параметр CABAC формата : Да
Параметр ReFrames формата : 12 кадров
Идентификатор кодека : V_MPEG4/ISO/AVC
Продолжительность : 2 ч. 13 м.
Битрейт : 1378 Кбит/сек
Ширина : 984 пикселя
Высота : 410 пикселей
Соотношение сторон : 2,40:1
Режим частоты кадров : Постоянный
Частота кадров : 23,976 кадра/сек
Цветовое пространство : YUV
Субдискретизация насыщенности : 4:2:0
Битовая глубина : 8 бит
Тип развёртки : Прогрессивная
Бит/(Пиксели*Кадры) : 0.142
Размер потока : 1,25 Гбайт (86%)
Заголовок : potroks
Библиотека кодирования : x264 core 146 r2538 121396c
Настройки программы : cabac=1 / ref=12 / deblock=1:-2:-2 / analyse=0x3:0x113 / me=umh / subme=11 / psy=1 / psy_rd=0.96:0.00 / mixed_ref=1 / me_range=48 / chroma_me=1 / trellis=2 / 8x8dct=1 / cqm=0 / deadzone=21,11 / fast_pskip=0 / chroma_qp_offset=-2 / threads=9 / lookahead_threads=2 / sliced_threads=0 / nr=0 / decimate=0 / interlaced=0 / bluray_compat=0 / constrained_intra=0 / bframes=13 / b_pyramid=2 / b_adapt=2 / b_bias=0 / direct=3 / weightb=1 / open_gop=0 / weightp=2 / keyint=240 / keyint_min=23 / scenecut=40 / intra_refresh=0 / rc_lookahead=60 / rc=2pass / mbtree=0 / bitrate=1378 / ratetol=1.0 / qcomp=0.70 / qpmin=0 / qpmax=69 / qpstep=4 / cplxblur=20.0 / qblur=0.5 / vbv_maxrate=14000 / vbv_bufsize=14000 / nal_hrd=none / filler=0 / ip_ratio=1.35 / pb_ratio=1.25 / aq=1:0.80
Язык : English
Default : Да
Forced : Нет

Аудио
Идентификатор : 2
Формат : AC-3
Формат/Информация : Audio Coding 3
Расширение режима : CM (complete main)
Параметр Endianness формата : Big
Идентификатор кодека : A_AC3
Продолжительность : 2 ч. 13 м.
Вид битрейта : Постоянный
Битрейт : 192 Кбит/сек
Каналы : 2 канала
Расположение каналов : Front: L R
Частота : 48,0 КГц
Метод сжатия : С потерями
Размер потока : 183 Мбайт (12%)
Заголовок : MVO | DD 2.0 @ 192 kbps - IDEAFILM
Язык : Russian
Default : Да
Forced : Нет

Текст
Идентификатор : 3
Формат : UTF-8
Идентификатор кодека : S_TEXT/UTF8
Идентификатор кодека/Информация : UTF-8 Plain Text
Заголовок : Forced
Язык : Russian
Default : Да
Forced : Нет

Меню
00:00:00.000 : en:(01)00:00:00:000
00:09:14.387 : en:(02)00:09:14:387
00:22:06.742 : en:(03)00:22:06:742
00:31:31.931 : en:(04)00:31:31:931
00:41:34.658 : en:(05)00:41:34:658
00:52:18.009 : en:(06)00:52:18:009
01:01:32.063 : en:(07)01:01:32:063
01:09:13.941 : en:(08)01:09:13:941
01:19:00.986 : en:(09)01:19:00:986
01:25:13.650 : en:(10)01:25:13:650
01:32:27.792 : en:(11)01:32:27:792
01:41:16.445 : en:(12)01:41:16:445
01:50:14.441 : en:(13)01:50:14:441
02:01:07.718 : en:(14)02:01:07:718
02:06:34.962 : en:(15)02:06:34:962
02:13:09.773 : en:(16)02:13:09:773

pb.wtf



Скачать Крид: Наследие Рокки через торрент http://i74.fastpic.ru/big/2016/0213/61/35ea5f70e2c475590beab9c0f532dc61.png Скачать фильм Крид: Наследие Рокки через торрент бесплантно в хорошем качестве Описание: В центре внимания сын Аполло Крида - первого серьезного соперника Рокки Бальбоа на ринге, впоследствии ставшего лучшим другом ... 10 10 21
Info! Золотая раздача, скачанное не засчитывается.
Торрент: Зарегистрирован [2016-02-14 14:05] · скачан: 559 раз
Статус: √ проверено
Размер: 1.46 GB
Как cкачать? Как скачать Крид: Наследие Рокки через торрент | UTorrent

% Раздел Тема Автор DL S | L
Фильмы 2015 [DVDrip, WEB-DLRip, HDrip] [ 1.46 GB ] Крид: Наследие Рокки / Creed [2015 BDRip] MVO [IDEAFILM] Twi7ter Скачать
1 | 0
R.G. Resident & PiratVoice - Фильмы, Видео [ 2.18 GB ] Крид: Наследие Рокки / Creed [2015 BDRip-AVC IDEAFILM] R.G.Resident Без рекламы schultz Скачать
1 | 0
R.G. Resident & PiratVoice - Фильмы, Видео [ 10.61 GB ] Крид: Наследие Рокки / Creed [2015 BDRip 1080p IDEAFILM] R.G.Resident Без рекламы schultz Скачать
1 | 0
Фильмы 2015 [DVDrip, WEB-DLRip, HDrip] [ 2.85 GB ] Крид: Наследие Рокки / Creed [2015 BDRip-AVC] MVO [IDEAFILM] Без рекламы potroks Скачать
5 | 0


Последний раз редактировалось: potroks (2016-02-14 14:05), всего редактировалось 1 раз

28-11-2019 20:33  

Отключить всю рекламу на сайте

13-02-2016 07:11 Крид: Наследие Рокки Скачать торрент  

Спасибо конечно,но как же я его жду в бубляжеpb.wtf



14-02-2016 14:06 Крид: Наследие Рокки Скачать торрент  

без рекламыpb.wtf



16-02-2016 09:33 Крид: Наследие Рокки Скачать торрент  

Подожду лицензию) за релиз спасибо!pb.wtf



    Дорогой пользователь! Огромная просьба, поблагодарите релизера, оцените раздачу и оставьте свои комментарий, если Вы скачали Крид: Наследие Рокки через торрент бесплатно! Внесите свою лепту в развитие PiratBit!
    Комментировать посты могут только пользователи прошедшие не сложную регистрацию
    Показать сообщения:    

    Крид: Наследие Рокки через торрент
    Скачать бесплатно Крид: Наследие Рокки
    Крид: Наследие Рокки скачать торрент
    Крид: Наследие Рокки смотреть онлайн
    Cкачать фильм Крид: Наследие Рокки бесплатно
    Крид: Наследие Рокки скачать торрент в хорошем качестве
    Крид: Наследие Рокки смотреть онлайн бесплатно в хорошем качестве


    Вы не можете начинать темы
    Вы не можете отвечать на сообщения
    Вы не можете редактировать свои сообщения
    Вы не можете удалять свои сообщения
    Вы не можете голосовать в опросах
    Вы не можете прикреплять файлы к сообщениям
    Вы можете скачивать файлы