1 сезон

1 сезон

iTunes

1

КиноПоиск HD

Кинопоиск HD

iTunes

13

1 сезон

RePack

30

Ultimate

ВАЖНО

ИГРА 18+

pack

RePack

MK11
pack

Легкие деньги

RePack

jed

RePack

fifa19

RePack

RDR2

RePack

NEED FOR SPEED™ PAYBACK

4 сезон

9 сезон

Бесстыжие 9 сезон

Все сериалы

все сериалы на PB.wtf

RePack

FAR CRY 5
  
Magnet ссылка

Интуиция / Serendipity (Питер Челсом) [2001, мелодрама, комедия, BDRip AVC by msltel] DUB, 2 x MVO, AVO pb.wtf

Интуиция через торрент pb.wtf

Размер: 3.11 GB | Добавлен: 5 лет 2 мес. назад | Торрент скачан:17 раз
Скачать  

13-02-2016 10:41 Интуиция Скачать торрент  

Название: Интуиция
Оригинальное название: Serendipity
Год выпуска: 2001
Страна: США
Жанр: мелодрама, комедия
Продолжительность: 01:30:57
Перевод: дублированный, профессиональный многоголосый, авторский

Режиссёр: Питер Челсом

В ролях: Джон Кьюсак, Кейт Бекинсейл, Джереми Пивен, Молли Шеннон, Майкл Джуарино мл., Юджин Леви, Кристал Бок, Стефен Брюс, Дэвид Спэрроу, Гари Гербрандт, Абдул Альшавиш, Бриджет Мойнэхэн, Кейт Блумберг, Рон Пэйн, Марсия Беннетт, Виктор А. Янг, Ив Кроуфорд, Ивэн Ньюманн, Джон Корбетт, Джеймс Гудвин, Джон Эллисон Конли, Джесика Келли, Бренда Логан, Томас Роуган, Майк Бенитез, Кристофер Бэйкер, Нил Клэкстон, Люси Гордон, Кевин Райс, Т. Скотт Каннингэм, Сандра Колдуэлл, Лилли Лавинь, Коллин Уильямс, Энн Тэлман, Эджей Мехта, Кларк Миддлтон, Лео Фицпатрик, Маркус Боубсич, Пол Рутледж, Саймон Джутрас, Кевин Кин Мерфи, Мюррэй МакРей, Катрин Кун

Описание: Эта симпатичная картина рассказывает о том, как молодые мужчина и женщина находят и снова теряют друг друга из виду. Она начинается и заканчивается именно под Рождество. Американец Джонатан и англичанка Сэра, живущая в Нью-Йорке, встретились в универмаге на предрождественской распродаже, провели вместе пару ничего не значащих часов, предоставив капризному фатуму решать: суждено ли им когда-нибудь опять столкнуться в многонаселённом городе. Сэра записала свой номер телефона в книге Габриэля Гарсии Маркеса, которую сдала в букинистический магазин. А Джонатан по её просьбе оставил своё имя на обороте пятидолларовой купюры, которой они тут же расплатились в каком-то киоске, и расстались. Джонатан и Сара уверены, что скоро увидятся вновь. Но коварная судьба распорядилась по-своему...



Качество: BDRip AVC Сравнение с исходником
Формат: MKV
Видео: MPEG-4 AVC, 2714 Кбит/с, 1024x576, 23,976 кадра/с
Аудио 1: русский, AC3, 448 kbps, 6 ch, 48 kHz [дублированный]
Аудио 2: русский, AC3, 448 kbps, 6 ch, 48 kHz [профессиональный многоголосый, Карусель]
Аудио 3: русский, AC3, 384 kbps, 6 ch, 48 kHz [профессиональный многоголосый, R1, DVD5]
Аудио 4: русский, AC3, 448 kbps, 6 ch, 48 kHz [авторский, Юрий Сербин]
Аудио 5: английский, AC3, 448 kbps, 6 ch, 48 kHz [оригинал]
Субтитры 1: русские
Субтитры 2: английские
Общее
Уникальный идентификатор : 192708948345128450248307067339297315570 (0x90FA64B6F8BD1ECDA252C3FBE710DAF2)
Полное имя : D:\Video\Интуиция.2001.BDRip.AVC.mkv
Формат : Matroska
Версия формата : Version 4 / Version 2
Размер файла : 3,11 Гбайт
Продолжительность : 1 ч. 30 м.
Общий поток : 4892 Кбит/сек
Дата кодирования : UTC 2016-02-13 04:25:56
Программа кодирования : mkvmerge v8.2.0 ('World of Adventure') 64bit
Библиотека кодирования : libebml v1.3.1 + libmatroska v1.4.2

Видео
Идентификатор : 1
Формат : AVC
Формат/Информация : Advanced Video Codec
Профиль формата : High@L4.1
Параметр CABAC формата : Да
Параметр ReFrames формата : 9 кадров
Идентификатор кодека : V_MPEG4/ISO/AVC
Продолжительность : 1 ч. 30 м.
Битрейт : 2714 Кбит/сек
Ширина : 1024 пикселя
Высота : 576 пикселей
Соотношение сторон : 16:9
Режим частоты кадров : Постоянный
Частота кадров : 23,976 (24000/1001) кадра/сек
Цветовое пространство : YUV
Субдискретизация насыщенности : 4:2:0
Битовая глубина : 8 бит
Тип развёртки : Прогрессивная
Бит/(Пиксели*Кадры) : 0.192
Размер потока : 1,72 Гбайт (55%)
Библиотека кодирования : x264 core 146 r2538 121396c
Настройки программы : cabac=1 / ref=9 / deblock=1:-1:-1 / analyse=0x3:0x113 / me=umh / subme=10 / psy=1 / psy_rd=1.00:0.15 / mixed_ref=1 / me_range=32 / chroma_me=1 / trellis=2 / 8x8dct=1 / cqm=0 / deadzone=21,11 / fast_pskip=1 / chroma_qp_offset=-3 / threads=6 / lookahead_threads=1 / sliced_threads=0 / nr=0 / decimate=1 / interlaced=0 / bluray_compat=0 / constrained_intra=0 / bframes=8 / b_pyramid=2 / b_adapt=2 / b_bias=0 / direct=1 / weightb=1 / open_gop=0 / weightp=2 / keyint=230 / keyint_min=23 / scenecut=40 / intra_refresh=0 / rc_lookahead=40 / rc=crf / mbtree=0 / crf=19.1 / qcomp=0.60 / qpmin=0 / qpmax=69 / qpstep=4 / vbv_maxrate=40000 / vbv_bufsize=50000 / crf_max=0.0 / nal_hrd=none / filler=0 / ip_ratio=1.40 / pb_ratio=1.30 / aq=1:1.00
Язык : English
Default : Да
Forced : Нет

Аудио #1
Идентификатор : 2
Формат : AC-3
Формат/Информация : Audio Coding 3
Расширение режима : CM (complete main)
Параметр Endianness формата : Big
Идентификатор кодека : A_AC3
Продолжительность : 1 ч. 30 м.
Вид битрейта : Постоянный
Битрейт : 448 Кбит/сек
Каналы : 6 каналов
Расположение каналов : Front: L C R, Side: L R, LFE
Частота : 48,0 КГц
Частота кадров : 31,250 кадров/сек (1536 spf)
Метод сжатия : С потерями
Размер потока : 291 Мбайт (9%)
Заголовок : DUB
Язык : Russian
Default : Да
Forced : Нет

Аудио #2
Идентификатор : 3
Формат : AC-3
Формат/Информация : Audio Coding 3
Расширение режима : CM (complete main)
Параметр Endianness формата : Big
Идентификатор кодека : A_AC3
Продолжительность : 1 ч. 30 м.
Вид битрейта : Постоянный
Битрейт : 448 Кбит/сек
Каналы : 6 каналов
Расположение каналов : Front: L C R, Side: L R, LFE
Частота : 48,0 КГц
Частота кадров : 31,250 кадров/сек (1536 spf)
Метод сжатия : С потерями
Размер потока : 291 Мбайт (9%)
Заголовок : MVO (Карусель)
Язык : Russian
Default : Нет
Forced : Нет

Аудио #3
Идентификатор : 4
Формат : AC-3
Формат/Информация : Audio Coding 3
Расширение режима : CM (complete main)
Параметр Endianness формата : Big
Идентификатор кодека : A_AC3
Продолжительность : 1 ч. 30 м.
Вид битрейта : Постоянный
Битрейт : 384 Кбит/сек
Каналы : 6 каналов
Расположение каналов : Front: L C R, Side: L R, LFE
Частота : 48,0 КГц
Частота кадров : 31,250 кадров/сек (1536 spf)
Метод сжатия : С потерями
Размер потока : 250 Мбайт (8%)
Заголовок : MVO (R1, DVD5)
Язык : Russian
Default : Нет
Forced : Нет

Аудио #4
Идентификатор : 5
Формат : AC-3
Формат/Информация : Audio Coding 3
Расширение режима : CM (complete main)
Параметр Endianness формата : Big
Идентификатор кодека : A_AC3
Продолжительность : 1 ч. 30 м.
Вид битрейта : Постоянный
Битрейт : 448 Кбит/сек
Каналы : 6 каналов
Расположение каналов : Front: L C R, Side: L R, LFE
Частота : 48,0 КГц
Частота кадров : 31,250 кадров/сек (1536 spf)
Метод сжатия : С потерями
Размер потока : 291 Мбайт (9%)
Заголовок : AVO (Юрий Сербин)
Язык : Russian
Default : Нет
Forced : Нет

Аудио #5
Идентификатор : 6
Формат : AC-3
Формат/Информация : Audio Coding 3
Расширение режима : CM (complete main)
Параметр Endianness формата : Big
Идентификатор кодека : A_AC3
Продолжительность : 1 ч. 30 м.
Вид битрейта : Постоянный
Битрейт : 448 Кбит/сек
Каналы : 6 каналов
Расположение каналов : Front: L C R, Side: L R, LFE
Частота : 48,0 КГц
Частота кадров : 31,250 кадров/сек (1536 spf)
Метод сжатия : С потерями
Размер потока : 291 Мбайт (9%)
Заголовок : Original
Язык : English
Default : Нет
Forced : Нет

Текст #1
Идентификатор : 7
Формат : UTF-8
Идентификатор кодека : S_TEXT/UTF8
Идентификатор кодека/Информация : UTF-8 Plain Text
Продолжительность : 1 ч. 25 м.
Битрейт : 112 бит/сек
Count of elements : 1095
Размер потока : 70,6 Кбайт (0%)
Заголовок : русский
Язык : Russian
Default : Нет
Forced : Нет

Текст #2
Идентификатор : 8
Формат : UTF-8
Идентификатор кодека : S_TEXT/UTF8
Идентификатор кодека/Информация : UTF-8 Plain Text
Продолжительность : 1 ч. 30 м.
Битрейт : 84 бит/сек
Count of elements : 1518
Размер потока : 55,7 Кбайт (0%)
Заголовок : английский
Default : Нет
Forced : Нет
pb.wtf



Скачать Интуиция через торрент http://s010.radikal.ru/i311/1602/68/74f75c703de1.jpg Скачать фильм Интуиция через торрент бесплантно в хорошем качестве Описание: Эта симпатичная картина рассказывает о том, как молодые мужчина и женщина находят и снова теряют друг друга из виду. Она ... 10 10 7
Info! Золотая раздача, скачанное не засчитывается.
Торрент: Зарегистрирован [2016-02-13 10:41] · скачан: 17 раз
Статус: √ проверено
Размер: 3.11 GB
Как cкачать? Как скачать Интуиция через торрент | UTorrent

% Раздел Тема Автор DL S | L
Фильмы [HD 720p, 1080p] (Хороший звук DUB, MVO) [ 13.84 GB ] Интуиция / Serendipity [2001 BDRip 1080p by msltel] DUB 2 x MVO AVO msltel Скачать
1 | 0
Фильмы [HD 720p, 1080p] (Хороший звук DUB, MVO) [ 4.7 GB ] Интуиция / Serendipity [2001 BDRip 720p by msltel] DUB 2 x MVO AVO msltel Скачать
1 | 0

28-11-2019 20:33  

Отключить всю рекламу на сайте

    Дорогой пользователь! Огромная просьба, поблагодарите релизера, оцените раздачу и оставьте свои комментарий, если Вы скачали Интуиция через торрент бесплатно! Внесите свою лепту в развитие PiratBit!
    Комментировать посты могут только пользователи прошедшие не сложную регистрацию
    Показать сообщения:    

    Интуиция через торрент
    Скачать бесплатно Интуиция
    Интуиция скачать торрент
    Интуиция смотреть онлайн
    Cкачать фильм Интуиция бесплатно
    Интуиция скачать торрент в хорошем качестве
    Интуиция смотреть онлайн бесплатно в хорошем качестве


    Вы не можете начинать темы
    Вы не можете отвечать на сообщения
    Вы не можете редактировать свои сообщения
    Вы не можете удалять свои сообщения
    Вы не можете голосовать в опросах
    Вы не можете прикреплять файлы к сообщениям
    Вы можете скачивать файлы