Ссылка на приватное зеркало всего за 1$. Внимание количество ограничено!!!

OK

1+1

iTunes

мы

OK

1

WEB-DLRip

Джокер

Пифагор

Ведьмак / The Witcher сериал

Лицензия

ПШазам

ОК

Оно 2

iTunes

30
pack

Вам бонус

ВАЖНО

!!Акция!!

Alien_RageХит недели

RePack

Resident Evil 21

ИГРА 18+

pack

RePack

jed

!!Акция!!

Alien_Rage

RePack

fifa19

RePack

Assassins Creed: Odyssey

RePack

NEED FOR SPEED™ PAYBACK

4 сезон

9 сезон

Бесстыжие 9 сезон

Все сериалы

все сериалы на PB.wtf

RePack

FAR CRY 5
  

Muse: Live At Rome Olympic Stadium [2015, концерт, UHDTV 4k, 2160p] pb.wtf

Muse: Live At Rome Olympic Stadium через торрент pb.wtf

Размер: 25.05 GB | Добавлен: 3 года 11 мес. назад | Торрент скачан:64 раза
Скачать  

13-02-2016 16:03 Muse: Live At Rome Olympic Stadium Скачать торрент  

Muse: Live At Rome Olympic Stadium




Год выхода: 2013
Продолжительность: 01:27:18
Жанр: Alternative Rock, New Prog, Progressive Metal, Space Rock

Режиссёр: Matt Askem

Исполнитель: Matthew Bellamy (lead vocals, guitars, keyboards, synthesisers, keytar), Christopher Wolstenholme (bass), Misa Kitara (harmonica, backing vocals), Dominic Howard (drums, percussion, synthesisers, backing vocals), Touring musicians: Morgan Nicholls (keytar, sampler, percussion, guitar, bass, backing vocals), Alessandro Cortini (keyboards, synthesisers)

Описание: Концерт «The Unsustainable Tour» с аудиторией более чем в 60 тысяч человек состоялся в июле 2013 года на легендарном итальянском стадионе Olympic Stadium в Риме. Шоу, с которым группа объехала все главные концертные площадки мира.

Muse - Live At Rome Olympic Stadium is the first concert film ever to be filmed in 4K, a format soon to be adopted by Hollywood as standard for all blockbuster films.The show filmed on the 6th July 2013 in front of a capacity audience of over 60,000, captures the momentous evening in the Italian capital and showcases the most extravagant set build and spectacular stage show of any Muse tour to date. The three school friends from Devon take the audience on a mesmerizing journey using pyrotechnics, expansive digital screens and a troop of actors to accompany their epic playlist of 20 tracks, mixed in incredible surround sound.

Качество: UHDTV 4k 2160p
Исходник: Muse: Live At Rome Olympic Stadium (2013) 2160p UHDTV DD5.1 HEVC-BtttS (tnx ULRAHDCLUB)
Формат: MKV
Видео: 3840x2160 at 60.000 fps, HEVC, ~31.1 Mbps avg
Аудио #1: DTS-HD Master Audio / 5.1 / 96 kHz / 8027 kbps / 24-bit
Аудио #2: FLAC / 2.0 / 96kHz / 3141 Kbps / 24-bit
Аудио #3: AC3 / 5.1 / 48kHz / 384 Kbps / 16-bit

Работа со звуком: messafan
01. Intro
02. Supremacy
03. Panic Station
04. Plug In Baby
05. Resistance
06. Animals
07. Knights Of Cydonia
08. Explorers
09. Hysteria
10. Follow Me
11. Madness
12. Time Is Running Out
13. Guiding Light
14. Undisclosed Desires
15. Supermassive Black Hole
16. Survival
17. The 2nd Law: Isolated System
18. Uprising
19. Starlight
General
Unique ID : 192966964937144498098360757942282543306 (0x912C15EA3585CCA68079058DC72EE0CA)
Complete name : Muse.Live.At.Rome.Olympic.Stadium.2013.2160p.UHDTV.HEVC.mkv
Format : Matroska
Format version : Version 4 / Version 2
File size : 25.1 GiB
Duration : 1h 27mn
Overall bit rate mode : Variable
Overall bit rate : 41.1 Mbps
Encoded date : UTC 2016-02-13 15:22:51
Writing application : mkvmerge v8.8.0 ('Wind at my back') 64bit
Writing library : libebml v1.3.3 + libmatroska v1.4.4
DURATION : 01:27:18.202000000
NUMBER_OF_FRAMES : 436517
NUMBER_OF_BYTES : 2056681849
_STATISTICS_WRITING_APP : mkvmerge v8.8.0 ('Wind at my back') 64bit
_STATISTICS_WRITING_DATE_UTC : 2016-02-13 15:22:51
_STATISTICS_TAGS : BPS DURATION NUMBER_OF_FRAMES NUMBER_OF_BYTES

Video
ID : 1
Format : HEVC
Format/Info : High Efficiency Video Coding
Format profile : Main 10@L5.1@Main
Codec ID : V_MPEGH/ISO/HEVC
Duration : 1h 27mn
Width : 3 840 pixels
Height : 2 160 pixels
Display aspect ratio : 16:9
Frame rate mode : Constant
Frame rate : 60.000 fps
Color space : YUV
Chroma subsampling : 4:2:0
Bit depth : 10 bits
Title : Muse.Live.At.Rome.Olympic.Stadium.2013.2160p.UHDTV.DD5.1.HEVC-BtttS
Writing library : ATEME Titan KFE 3.6.2 (4.6.1.9)
Default : Yes
Forced : No

Audio #1
ID : 2
Format : DTS
Format/Info : Digital Theater Systems
Format profile : 96/24 / Core
Mode : 16
Format settings, Endianness : Big
Codec ID : A_DTS
Duration : 1h 27mn
Bit rate mode : Constant
Bit rate : 1 509 Kbps
Channel(s) : 6 channels
Channel positions : Front: L C R, Side: L R, LFE
Sampling rate : 96.0 KHz / 48.0 KHz
Bit depth : 24 bits
Compression mode : Lossy
Stream size : 942 MiB (4%)
Title : DTS-HD MA 5.1 24/96 from Blu-ray
Language : English
Default : Yes
Forced : No

Audio #2
ID : 3
Format : FLAC
Format/Info : Free Lossless Audio Codec
Codec ID : A_FLAC
Duration : 1h 27mn
Bit rate mode : Variable
Channel(s) : 2 channels
Sampling rate : 96.0 KHz
Bit depth : 24 bits
Title : PCM stereo 24/96 from Blu-ray
Writing library : libFLAC 1.0.25 (UTC 2007-09-17)
Language : English
Default : No
Forced : No

Audio #3
ID : 4
Format : AC-3
Format/Info : Audio Coding 3
Mode extension : CM (complete main)
Format settings, Endianness : Big
Codec ID : A_AC3
Duration : 1h 27mn
Bit rate mode : Constant
Bit rate : 384 Kbps
Channel(s) : 6 channels
Channel positions : Front: L C R, Side: L R, LFE
Sampling rate : 48.0 KHz
Bit depth : 16 bits
Compression mode : Lossy
Stream size : 240 MiB (1%)
Language : Korean
Default : No
Forced : No
[/code]
pb.wtf



Скачать Muse: Live At Rome Olympic Stadium через торрент http://i74.fastpic.ru/big/2016/0213/be/6498b886efdb8bd8ac2ee626ffe1c7be.jpg Скачать фильм Muse: Live At Rome Olympic Stadium [2015, концерт, UHDTV 4k, 2160p]через торрент бесплантно в хорошем качестве Описание: Концерт «The Unsustainable Tour» с аудиторией более чем в 60 тысяч человек состоялся в июле 2013 года на легендарном итальянском ... 10 10 7
Info! Золотая раздача, скачанное не засчитывается.
Торрент: Зарегистрирован [2016-02-13 16:03] · скачан: 64 раз
Статус: √ проверено
Размер: 25.05 GB
Как cкачать? Как скачать Muse: Live At Rome Olympic Stadium через торрент | qTorrent

% Раздел Тема Автор DL S | L
Alternative & Nu-metal (mp3) [ 138 MB ] Muse - Live at Rome Olympic Stadium 2013 / MP3 / 320 kbps / Alternative rock Azat17 Скачать
1 | 0
Alternative, Punk, Independent (Видео) [ 1.37 GB ] Muse - Live at Rome Olympic Stadium [2013 Alternative rock HDRip ] Azat17 Скачать
1 | 0


Последний раз редактировалось: Messa-fan (2016-02-14 11:42), всего редактировалось 1 раз

28-11-2019 20:33  

Отключить всю рекламу на сайте

13-02-2016 20:28 Muse: Live At Rome Olympic Stadium Скачать торрент  

player CyberLink PowerDVD..
или?pb.wtf



13-02-2016 20:31 Muse: Live At Rome Olympic Stadium Скачать торрент  

valdune, я MPC-HC используюpb.wtf



13-02-2016 21:02 Muse: Live At Rome Olympic Stadium Скачать торрент  

спасибо..pb.wtf



    Дорогой пользователь! Огромная просьба, поблагодарите релизера, оцените раздачу и оставьте свои комментарий, если Вы скачали Muse: Live At Rome Olympic Stadium через торрент бесплатно! Внесите свою лепту в развитие PiratBit!
    Комментировать посты могут только пользователи прошедшие не сложную регистрацию
    Показать сообщения:    

    Muse: Live At Rome Olympic Stadium через торрент
    Скачать бесплатно Muse: Live At Rome Olympic Stadium
    Muse: Live At Rome Olympic Stadium скачать торрент
    Muse: Live At Rome Olympic Stadium смотреть онлайн
    Cкачать фильм Muse: Live At Rome Olympic Stadium бесплатно
    Muse: Live At Rome Olympic Stadium скачать торрент в хорошем качестве
    Muse: Live At Rome Olympic Stadium смотреть онлайн бесплатно в хорошем качестве


    Вы не можете начинать темы
    Вы не можете отвечать на сообщения
    Вы не можете редактировать свои сообщения
    Вы не можете удалять свои сообщения
    Вы не можете голосовать в опросах
    Вы не можете прикреплять файлы к сообщениям
    Вы можете скачивать файлы