Ссылка на приватное зеркало всего за 1$. Внимание количество ограничено!!!

iTunes

iTunes

iTunes

1

iTunes

iTunes

iTunes

iTunes

iTunes

30
pack

$ от Little Big

ВАЖНО

!!Акция!!

Alien_RageХит недели

RePack

Resident Evil 21

ИГРА 18+

pack

RePack

jed

!!Акция!!

Alien_Rage

RePack

fifa19

RePack

Assassins Creed: Odyssey

RePack

NEED FOR SPEED™ PAYBACK

4 сезон

9 сезон

Бесстыжие 9 сезон

Все сериалы

все сериалы на PB.wtf

RePack

FAR CRY 5
  

Самый лучший день (Жора Крыжовников) [2015 г., комедия, музыка, HDRip , Оригинальный "Лицензия"] pb.wtf

Самый лучший день через торрент pb.wtf

Размер: 2.17 GB | Добавлен: 4 года 3 мес. назад | Торрент скачан:639 раз
Скачать  

13-02-2016 17:55 Самый лучший день Скачать торрент  

Самый лучший день
Год выпуска: 2015
Страна: Россия / Базелевс Продакшн
Жанр: комедия, музыка
Продолжительность: 1:47:04
Перевод: Оригинальный (Лицензия)

Режиссер: Жора Крыжовников

IMDB 5.20 (309)


В ролях: Дмитрий Нагиев, Юлия Александрова, Ольга Серябкина, Инна Чурикова, Михаил Боярский, Елена Яковлева, Владислав Ветров, Валентина Мазунина, Ян Цапник, Андрей Малахов

Описание: Успешному сотруднику ДПС Пете Васютину уже давно пора заводить семью, а он живет с мамой, хозяйкой придорожного кафе. И невеста есть — королева бензоколонки, кассирша Оля. В тот самый день, когда Петя решает сделать Оле предложение, в его служебную машину врезается пьяная поп-звезда Алина Шёпот. Чтобы избежать наказания, Алина решает соблазнить Петю...

Качество: HDRip
Формат: AVI
Видео кодек: XviD
Аудио кодек: AC3
Видео: MPEG4, XviD, 720x384 (1.875), 24.000 fps, 2 446 Kbps (0.369 bit/pixel)
Аудио: AC-3, 48.0 KHz, 6 ch, 448 Kbps, CBR
скриншот   скриншот   скриншот   скриншот   скриншот   скриншот   скриншот   скриншот   скриншот   скриншот  

Общее
Полное имя : F:\кино\Самый лучший день.2015.O.HDRip.avi
Формат : AVI
Формат/Информация : Audio Video Interleave
Профиль формата : OpenDML
Размер файла : 2,17 Гбайт
Продолжительность : 1 ч. 47 м.
Общий поток : 2906 Кбит/сек
Программа кодирования : VirtualDubMod 1.5.10.3 | www.virtualdub-fr.org || (build 2550/release)
Библиотека кодирования : VirtualDubMod build 2550/release

Видео
Идентификатор : 0
Формат : MPEG-4 Visual
Профиль формата : Advanced Simple@L5
Параметр BVOP формата : 2
Параметр QPel формата : Нет
Параметр GMC формата : Без точки перехода
Параметр матрицы формата : Default (H.263)
Идентификатор кодека : XVID
Идентификатор кодека/Подсказка : XviD
Продолжительность : 1 ч. 47 м.
Битрейт : 2446 Кбит/сек
Ширина : 720 пикселей
Высота : 384 пикселя
Соотношение сторон : 1,85:1
Частота кадров : 24,000 кадра/сек
Цветовое пространство : YUV
Субдискретизация насыщенности : 4:2:0
Битовая глубина : 8 бит
Тип развёртки : Прогрессивная
Метод сжатия : С потерями
Бит/(Пиксели*Кадры) : 0.369
Размер потока : 1,83 Гбайт (84%)
Библиотека кодирования : XviD 1.2.1 (UTC 2008-12-04)

Аудио
Идентификатор : 1
Формат : AC-3
Формат/Информация : Audio Coding 3
Расширение режима : CM (complete main)
Параметр Endianness формата : Big
Идентификатор кодека : 2000
Продолжительность : 1 ч. 47 м.
Вид битрейта : Постоянный
Битрейт : 448 Кбит/сек
Каналы : 6 каналов
Расположение каналов : Front: L C R, Side: L R, LFE
Частота : 48,0 КГц
Частота кадров : 31,250 кадров/сек (1536 spf)
Метод сжатия : С потерями
Размер потока : 343 Мбайт (15%)
Выравнивание : Разделение по промежуткам
Продолжительность промежутка : 42 мс. (1,00 видеокадр)
Время предзагрузки промежутка : 500 мс.

pb.wtf



Скачать Самый лучший день через торрент http://pic.kartinco.top/images/11/rwn2q.jpg Скачать фильм Самый лучший день через торрент бесплантно в хорошем качестве Описание: Успешному сотруднику ДПС Пете Васютину уже давно пора заводить семью, а он живет с мамой, хозяйкой придорожного кафе. И невеста ... 8 10 25
Торрент: Зарегистрирован [2016-02-13 17:55] · скачан: 639 раз
Статус: √ проверено
Размер: 2.17 GB
Как cкачать? Как скачать Самый лучший день через торрент | qTorrent

% Раздел Тема Автор DL S | L
Наши фильмы (HD, WEB-DL 720p, 1080p) [ 4.37 GB ] Самый лучший день [2015 музыка BDRip 720p] potroks Скачать
2 | 0
Наши новые фильмы 2015 [ 1.46 GB ] Самый лучший день [2015 музыка BDRip Оригинальный [] Twi7ter Скачать
1 | 0
Наши новые фильмы 2015 [ 1.47 GB ] Самый лучший день [2015 Россия музыка BDRip от keeper.52] keeper.52 Скачать
3 | 0
Наши фильмы (HD, WEB-DL 720p, 1080p) [ 9.35 GB ] Самый лучший день [2015 музыка BDRip 1080p от ExKinoRay] $-DRON-$ Скачать
1 | 0
Наши новые фильмы 2015 [ 1.46 GB ] Самый лучший день [2015 музыка WEB-DLRip Оригинальный Twi7ter Скачать
3 | 0
Наши новые фильмы 2015 [ 2.18 GB ] Самый лучший день [2015 музыка BDRip-AVC] potroks Скачать
2 | 0
R.G. Resident & PiratVoice - Фильмы, Видео [ 1.46 GB ] Самый лучший день [2015 музыка WEB-DLRip-AVC Оригинальный R.G.Resident schultz Скачать
1 | 0

28-11-2019 20:33  

Отключить всю рекламу на сайте

13-02-2016 20:03 Самый лучший день Скачать торрент  

нах идут такие фильмы и их режиссер жора туда жеpb.wtf



14-02-2016 05:51 Самый лучший день Скачать торрент  

c такой фамилией только такие фильмы можно снятьpb.wtf



14-02-2016 11:24 Самый лучший день Скачать торрент  

и женой своей. уже третий фильм своим истеричным нытьем портитpb.wtf



14-02-2016 11:57 Самый лучший день Скачать торрент  

фу............................................pb.wtf



15-02-2016 11:09 Самый лучший день Скачать торрент  

Отстой!!!!!!!!!!!!!!!!!!!!!!!!!!!pb.wtf



15-02-2016 16:13 Самый лучший день Скачать торрент  

Для страны в которой снимают качественное редкостное гав..о, это не плохой алко-комедийный мюзикл. Но так как снимать не умеют, а пробуют сделать эффект любительской съёмки или живого присутствия, смотреть очень сложно, болят глаза от этих плясок камер и экрана!!!! оценка 7.pb.wtf



    Дорогой пользователь! Огромная просьба, поблагодарите релизера, оцените раздачу и оставьте свои комментарий, если Вы скачали Самый лучший день через торрент бесплатно! Внесите свою лепту в развитие PiratBit!
    Комментировать посты могут только пользователи прошедшие не сложную регистрацию
    Показать сообщения:    

    Самый лучший день через торрент
    Скачать бесплатно Самый лучший день
    Самый лучший день скачать торрент
    Самый лучший день смотреть онлайн
    Cкачать фильм Самый лучший день бесплатно
    Самый лучший день скачать торрент в хорошем качестве
    Самый лучший день смотреть онлайн бесплатно в хорошем качестве


    Вы не можете начинать темы
    Вы не можете отвечать на сообщения
    Вы не можете редактировать свои сообщения
    Вы не можете удалять свои сообщения
    Вы не можете голосовать в опросах
    Вы не можете прикреплять файлы к сообщениям
    Вы можете скачивать файлы