1 сезон

3 сезон

iTunes

1

Line

MVO

iTunes

13

1 сезон

RePack

30

Deluxe

pack

Лицензия

ВАЖНО

ИГРА 18+

pack

RePack

MK11

RePack

jed

RePack

fifa19

RePack

RDR2

RePack

NEED FOR SPEED™ PAYBACK

4 сезон

9 сезон

Бесстыжие 9 сезон

Все сериалы

все сериалы на PB.wtf

RePack

FAR CRY 5

Anonymous, доброй ночи, мы катастрофически не успеваем собрать деньги на оплату серверов, помогите нам пожалуйста 5,10,15р., для нас важна любая помощь . В качестве благодарности мы отключим Вам всю рекламу на сайте (укажите свой ник в строку Ваше имя)!

×
  
Magnet ссылка

007: СПЕКТР / Spectre (Сэм Мендес / Sam Mendes) [2015, боевик, триллер, приключения, DVD9] DUB R5 pb.wtf

007: СПЕКТР через торрент pb.wtf

Размер: 7.56 GB | Добавлен: 5 лет 5 мес. назад | Торрент скачан:83 раза
Скачать  

14-02-2016 09:59 007: СПЕКТР Скачать торрент  


007: СПЕКТР / Spectre
«The Dead Are Alive»
Страна: Великобритания, США
Студия: B24, Columbia Pictures, Danjaq, Eon Productions Ltd., Metro-Goldwyn-Mayer (MGM), Revolution Sun, Sony
Жанр: боевик, триллер, приключения
Год выпуска: 2015
Мировая премьера: 26 октября 2015
Российская премьера: 6 ноября 2015
Дата выхода DVD: 12 февраля 2016
Дата выхода Blu-Ray: 12 февраля 2016
Продолжительность: 02:22:04
Перевод: Профессиональный (дублированный) [Лицензия]
Cубтитры: русские, английские, испанские, эстонские, латышские, литовские, украинские
Оригинальная аудиодорожка: английский
Режиссер: Сэм Мендес / Sam Mendes
В ролях: Дэниэл Крэйг, Кристоф Вальц, Леа Сейду, Рэйф Файнс, Моника Беллуччи, Бен Уишоу, Наоми Харрис, Дэйв Батиста, Эндрю Скотт, Рори Киннер, Еспер Кристенсен, Алессандро Кремона, Стефани Сигман, Теноч Уэрта, Адриана Пас, Доменико Фортунато, Йен Бонар, Там Уильямс, Ричард Бенхем, Пип Картер
Описание: Зашифрованное послание из неизвестного источника выводит Бонда на след зловещей глобальной организации под кодовым названием СПЕКТР, в то время как М пытается спасти секретную разведывательную службу от ликвидации.
Бонусы: Режиссер - Сэм Мендес, Супермашины, Фестиваль "День Мертвых", Знакомства с Леа Сейду и Моникой Беллуччи, Экшн, Музыка, Мировой рекорд Гиннесса

Релиз группы:
Качество: DVD9 R5
Формат: DVD-Video
Видео кодек: MPEG2
Аудио кодек: AC3
Видео: PAL 16:9 (720x576(0.516)) MPEG Video, 25,000 кадр/сек, 5345 Кбит/сек
Аудио #1: English (Dolby AC3, 6 ch) 448 Кбит/сек, 48,0 КГц
Аудио #2: Espanol (Dolby AC3, 6 ch) 384 Кбит/сек, 48,0 КГц
Аудио #3: Russian (Dolby AC3, 6 ch) 384 Кбит/сек, 48,0 КГц
Аудио #4: Ukrainian (Dolby AC3, 6 ch) 384 Кбит/сек, 48,0 КГц



Title: F
Size: 7.56 Gb ( 7 930 588 KBytes ) - DVD-9
Enabled regions: 1, 2, 3, 4, 5, 6, 7, 8

VTS_01 :
Play Length: 00:00:07+00:00:05+00:00:10+00:00:06
Video: PAL 16:9 (720x576) VBR, Auto Letterboxed

VTS_02 :
Play Length: 00:00:11
Video: PAL 16:9 (720x576) VBR, Auto Pan&Scan
Audio:
English (Dolby AC3, 6 ch)

VTS_03 :
Play Length: 00:00:13
Video: PAL 16:9 (720x576) VBR, Auto Pan&Scan
Audio:
English (Dolby AC3, 2 ch)

VTS_04 :
Play Length:
Video: PAL 16:9 (720x576) VBR, Auto Pan&Scan

VTS_05 :
Play Length:
Video: PAL 16:9 (720x576) VBR, Auto Pan&Scan

VTS_06 :
Play Length: 00:10:54+00:01:29+00:01:40+00:02:02+00:01:42+00:01:36+00:01:50+00:01:19
Video: PAL 16:9 (720x576) VBR, Auto Pan&Scan
Audio:
English (Dolby AC3, 2 ch)
Subtitles:
Espanol
Russian

VTS_07 :
Play Length: 00:00:01+02:22:04
Video: PAL 16:9 (720x576) VBR, Auto Pan&Scan
Audio:
English (Dolby AC3, 6 ch)
Espanol (Dolby AC3, 6 ch)
Russian (Dolby AC3, 6 ch)
Ukrainian (Dolby AC3, 6 ch)
Subtitles:
English
Espanol
Russian
Estonian
Latvian
Lithuanian
Ukrainian
English
Espanol
Russian
Ukrainian

VTS_08 :
Play Length:
Video: PAL 16:9 (720x576) VBR, Auto Letterboxed

VTS_09 :
Play Length:
Video: PAL 16:9 (720x576) VBR, Auto Pan&Scan

VTS_10 :
Play Length:
Video: PAL 16:9 (720x576) VBR, Auto Pan&Scan

VTS_11 :
Play Length:
Video: PAL 16:9 (720x576) VBR, Auto Pan&Scan

Menu Video:
PAL 16:9 (720x576) VBR
Auto Letterboxed
Menu Subtitles:
Not specified
Menu English Language Unit :
Root Menu
Subpicture Menu
Audio Menu
Angle menu
Chapter (PTT) Menu
Общее
Полное имя : F:\Новинки 2015\007.SPEKTR.2015.D.DVD9\VIDEO_TS\VTS_07_2.VOB
Формат : MPEG-PS
Размер файла : 1024 Мбайт
Продолжительность : 20 м.
Режим общего битрейта : Переменный
Общий поток : 7086 Кбит/сек

Видео
Идентификатор : 224 (0xE0)
Формат : MPEG Video
Версия формата : Version 2
Профиль формата : Main@Main
Параметр BVOP формата : Да
Параметр матрицы формата : Выборочная
Параметр GOP формата : Variable
Продолжительность : 20 м.
Вид битрейта : Переменный
Битрейт : 5345 Кбит/сек
Максимальный битрейт : 9800 Кбит/сек
Ширина : 720 пикселей
Высота : 576 пикселей
Соотношение сторон : 16:9
Частота кадров : 25,000 кадров/сек
Стандарт вещания : PAL
Цветовое пространство : YUV
Субдискретизация насыщенности : 4:2:0
Битовая глубина : 8 бит
Тип развёртки : Прогрессивная
Порядок развёртки : Верхнее поле первое
Метод сжатия : С потерями
Бит/(Пиксели*Кадры) : 0.516
Временной код первого кадра : 01:20:11:23
Оригинал временного кода : Group of pictures header
Размер потока : 772 Мбайт (75%)

Аудио #1
Идентификатор : 189 (0xBD)-128 (0x80)
Формат : AC-3
Формат/Информация : Audio Coding 3
Расширение режима : CM (complete main)
Параметр Endianness формата : Big
Режим смешивания : DVD-Video
Продолжительность : 20 м.
Вид битрейта : Постоянный
Битрейт : 448 Кбит/сек
Каналы : 6 каналов
Расположение каналов : Front: L C R, Side: L R, LFE
Частота : 48,0 КГц
Частота кадров : 31,250 кадров/сек (1536 spf)
Метод сжатия : С потерями
Задержка видео : -520 мс.
Размер потока : 64,7 Мбайт (6%)

Аудио #2
Идентификатор : 189 (0xBD)-129 (0x81)
Формат : AC-3
Формат/Информация : Audio Coding 3
Расширение режима : CM (complete main)
Параметр Endianness формата : Big
Режим смешивания : DVD-Video
Продолжительность : 20 м.
Вид битрейта : Постоянный
Битрейт : 384 Кбит/сек
Каналы : 6 каналов
Расположение каналов : Front: L C R, Side: L R, LFE
Частота : 48,0 КГц
Частота кадров : 31,250 кадров/сек (1536 spf)
Метод сжатия : С потерями
Задержка видео : -488 мс.
Размер потока : 55,5 Мбайт (5%)

Аудио #3
Идентификатор : 189 (0xBD)-130 (0x82)
Формат : AC-3
Формат/Информация : Audio Coding 3
Расширение режима : CM (complete main)
Параметр Endianness формата : Big
Режим смешивания : DVD-Video
Продолжительность : 20 м.
Вид битрейта : Постоянный
Битрейт : 384 Кбит/сек
Каналы : 6 каналов
Расположение каналов : Front: L C R, Side: L R, LFE
Частота : 48,0 КГц
Частота кадров : 31,250 кадров/сек (1536 spf)
Метод сжатия : С потерями
Задержка видео : -488 мс.
Размер потока : 55,5 Мбайт (5%)

Аудио #4
Идентификатор : 189 (0xBD)-131 (0x83)
Формат : AC-3
Формат/Информация : Audio Coding 3
Расширение режима : CM (complete main)
Параметр Endianness формата : Big
Режим смешивания : DVD-Video
Продолжительность : 20 м.
Вид битрейта : Постоянный
Битрейт : 384 Кбит/сек
Каналы : 6 каналов
Расположение каналов : Front: L C R, Side: L R, LFE
Частота : 48,0 КГц
Частота кадров : 31,250 кадров/сек (1536 spf)
Метод сжатия : С потерями
Задержка видео : -488 мс.
Размер потока : 55,5 Мбайт (5%)

Текст #1
Идентификатор : 189 (0xBD)-32 (0x20)
Формат : RLE
Формат/Информация : Run-length encoding
Режим смешивания : DVD-Video
Задержка видео : 1 с. 720 мс.

Текст #2
Идентификатор : 189 (0xBD)-33 (0x21)
Формат : RLE
Формат/Информация : Run-length encoding
Режим смешивания : DVD-Video
Задержка видео : 1 с. 720 мс.

Текст #3
Идентификатор : 189 (0xBD)-34 (0x22)
Формат : RLE
Формат/Информация : Run-length encoding
Режим смешивания : DVD-Video
Задержка видео : 1 с. 720 мс.

Текст #4
Идентификатор : 189 (0xBD)-35 (0x23)
Формат : RLE
Формат/Информация : Run-length encoding
Режим смешивания : DVD-Video
Задержка видео : 1 с. 720 мс.

Текст #5
Идентификатор : 189 (0xBD)-36 (0x24)
Формат : RLE
Формат/Информация : Run-length encoding
Режим смешивания : DVD-Video
Задержка видео : 1 с. 920 мс.

Текст #6
Идентификатор : 189 (0xBD)-37 (0x25)
Формат : RLE
Формат/Информация : Run-length encoding
Режим смешивания : DVD-Video
Задержка видео : 1 с. 920 мс.

Текст #7
Идентификатор : 189 (0xBD)-38 (0x26)
Формат : RLE
Формат/Информация : Run-length encoding
Режим смешивания : DVD-Video
Задержка видео : 1 с. 760 мс.

Текст #8
Идентификатор : 189 (0xBD)-39 (0x27)
Формат : RLE
Формат/Информация : Run-length encoding
Режим смешивания : DVD-Video
Задержка видео : 1 с. 760 мс.

Текст #9
Идентификатор : 189 (0xBD)-40 (0x28)
Формат : RLE
Формат/Информация : Run-length encoding
Режим смешивания : DVD-Video
Задержка видео : 1 с. 720 мс.

Текст #10
Идентификатор : 189 (0xBD)-41 (0x29)
Формат : RLE
Формат/Информация : Run-length encoding
Режим смешивания : DVD-Video
Задержка видео : 1 с. 720 мс.

Текст #11
Идентификатор : 189 (0xBD)-42 (0x2A)
Формат : RLE
Формат/Информация : Run-length encoding
Режим смешивания : DVD-Video
Задержка видео : 1 с. 720 мс.

Текст #12
Идентификатор : 189 (0xBD)-43 (0x2B)
Формат : RLE
Формат/Информация : Run-length encoding
Режим смешивания : DVD-Video
Задержка видео : 1 с. 720 мс.

Текст #13
Идентификатор : 189 (0xBD)-44 (0x2C)
Формат : RLE
Формат/Информация : Run-length encoding
Режим смешивания : DVD-Video
Задержка видео : 1 с. 720 мс.

Текст #14
Идентификатор : 189 (0xBD)-45 (0x2D)
Формат : RLE
Формат/Информация : Run-length encoding
Режим смешивания : DVD-Video
Задержка видео : 1 с. 720 мс.










pb.wtf



Скачать 007: СПЕКТР через торрент http://i74.fastpic.ru/big/2016/0210/a5/c11df9f1f1e92e8c1daa7707d8a7c2a5.png Скачать фильм 007: СПЕКТР через торрент бесплантно в хорошем качестве Описание: Зашифрованное послание из неизвестного источника выводит Бонда на след зловещей глобальной организации под кодовым названием ... 9.1 10 7
Info! Золотая раздача, скачанное не засчитывается.
Торрент: Зарегистрирован [2016-02-14 09:59] · скачан: 83 раз
Статус: √ проверено
Размер: 7.56 GB
Как cкачать? Как скачать 007: СПЕКТР через торрент | UTorrent

% Раздел Тема Автор DL S | L
Фильмы (BDRip, HDrip-AVC) (48-60 fps) [ 3.94 GB ] 007: СПЕКТР / Spectre [2015 BDRip-AVC 60fps Dub] от R.G. HD-Films Tiberiumsun69 Скачать
2 | 1

28-11-2019 20:33  

Отключить всю рекламу на сайте

    Дорогой пользователь! Огромная просьба, поблагодарите релизера, оцените раздачу и оставьте свои комментарий, если Вы скачали 007: СПЕКТР через торрент бесплатно! Внесите свою лепту в развитие PiratBit!
    Комментировать посты могут только пользователи прошедшие не сложную регистрацию
    Показать сообщения:    

    007: СПЕКТР через торрент
    Скачать бесплатно 007: СПЕКТР
    007: СПЕКТР скачать торрент
    007: СПЕКТР смотреть онлайн
    Cкачать фильм 007: СПЕКТР бесплатно
    007: СПЕКТР скачать торрент в хорошем качестве
    007: СПЕКТР смотреть онлайн бесплатно в хорошем качестве


    Вы не можете начинать темы
    Вы не можете отвечать на сообщения
    Вы не можете редактировать свои сообщения
    Вы не можете удалять свои сообщения
    Вы не можете голосовать в опросах
    Вы не можете прикреплять файлы к сообщениям
    Вы можете скачивать файлы