Ссылка на приватное зеркало всего за 1$. Внимание количество ограничено!!!

OK

1+1

iTunes

мы

OK

1

WEB-DLRip

Джокер

Пифагор

Ведьмак / The Witcher сериал

iTunes

ПШазам

ОК

Оно 2

iTunes

30
pack

Вам бонус

ВАЖНО

!!Акция!!

Alien_RageХит недели

RePack

Resident Evil 21

ИГРА 18+

pack

RePack

jed

RePack

fifa19

RePack

Assassins Creed: Odyssey

RePack

NEED FOR SPEED™ PAYBACK

4 сезон

9 сезон

Бесстыжие 9 сезон

Все сериалы

все сериалы на PB.wtf

RePack

FAR CRY 5
  

Крид: Наследие Рокки / Creed (Райан Куглер / Ryan Coogler) [2015, драма, спорт, BDRip-AVC от potroks] MVO [IDEAFILM] Без рекламы pb.wtf

Крид: Наследие Рокки через торрент pb.wtf

Размер: 2.85 GB | Добавлен: 3 года 11 мес. назад | Торрент скачан:722 раза
Скачать  

14-02-2016 13:40 Крид: Наследие Рокки Скачать торрент  

Крид: Наследие Рокки / Creed
«Your legacy is more than a name»
Год выпуска: 2015
Страна: США / Warner Bros. Pictures, Metro-Goldwyn-Mayer (MGM), New Line Cinema...
Жанр: драма, спорт
Продолжительность: 02:13:10
Перевод: Профессиональный (многоголосый) [IDEAFILM]
Субтитры: русские (форс.), английские (Full), английские (SDH)
Навигация по главам: есть
Режиссер: Райан Куглер / Ryan Coogler
В ролях:

Майкл Б. Джордан (Adonis Johnson), Сильвестр Сталлоне (Rocky Balboa), Тесса Томпсон (Bianca), Филисия Рашад (Mary Anne Creed), Андре Уорд (Danny «Stuntman» Wheeler), Тони Белью («Pretty» Ricky Conlan), Ричи Костер (Pete Sporino), Джейкоб ’Стич’ Дюран (Stitch), Грэм МакТавиш (Tommy Holiday), Malik Bazille (Amir), Ricardo McGill (Padman), Габриэль Росадо (Leo «The Lion» Sporino)
Описание: В центре внимания сын Аполло Крида - первого серьезного соперника Рокки Бальбоа на ринге, впоследствии ставшего лучшим другом героя. Талант отца в какой-то момент проявляется и в Криде-младшем, и юноша отправляется на поиски наставника, коим для него в итоге становится постаревший Рокки, тоже не слишком жаждущий возвращаться к старым делам. Даже в качестве тренера.

Качество: BDRip-AVC
Формат: MKV
Видео кодек: AVC
Аудио кодек: AC3
Видео: 1104x460 (2.40:1), 2232 kbps, 23,976 fps, 0,183 bit/pixel
Аудио №1: AC3 / 5.1 / 48 kHz / 384 kbps / 16 bit | RUS
Аудио №2: AC3 / 5.1 / 48 kHz / 448 kbps / 16 bit | ENG

Релиз группы:
Автор рипа: potroks

Код:

Общее
Уникальный идентификатор : 211725868313973365338911459770736138849 (0x9F48EB42309A29418E336D8E16F15A61)
Полное имя : Krid.2015.DUAL.BDRip.x264.-HELLYWOOD.mkv
Формат : Matroska
Версия формата : Version 4 / Version 2
Размер файла : 2,85 Гбайт
Продолжительность : 2 ч. 13 м.
Общий поток : 3064 Кбит/сек
Название фильма : Creed (2015) - HELLYWOOD
Дата кодирования : UTC 2016-02-14 12:47:29
Программа кодирования : mkvmerge v5.9.0 ('On The Loose') built on Dec 15 2012 16:39:58
Библиотека кодирования : libebml v1.3.0 + libmatroska v1.4.0

Видео
Идентификатор : 1
Формат : AVC
Формат/Информация : Advanced Video Codec
Профиль формата : High@L4.1
Параметр CABAC формата : Да
Параметр ReFrames формата : 10 кадров
Идентификатор кодека : V_MPEG4/ISO/AVC
Продолжительность : 2 ч. 13 м.
Битрейт : 2232 Кбит/сек
Ширина : 1104 пикселя
Высота : 460 пикселей
Соотношение сторон : 2,40:1
Режим частоты кадров : Постоянный
Частота кадров : 23,976 кадра/сек
Цветовое пространство : YUV
Субдискретизация насыщенности : 4:2:0
Битовая глубина : 8 бит
Тип развёртки : Прогрессивная
Бит/(Пиксели*Кадры) : 0.183
Размер потока : 2,02 Гбайт (71%)
Заголовок : potroks
Библиотека кодирования : x264 core 148 r2665M a01e339
Настройки программы : cabac=1 / ref=10 / deblock=1:-3:-3 / analyse=0x3:0x133 / me=umh / subme=11 / psy=1 / psy_rd=0.98:0.00 / mixed_ref=1 / me_range=48 / chroma_me=1 / trellis=2 / 8x8dct=1 / cqm=0 / deadzone=21,11 / fast_pskip=0 / chroma_qp_offset=-2 / threads=9 / lookahead_threads=2 / sliced_threads=0 / nr=0 / decimate=1 / interlaced=0 / bluray_compat=0 / constrained_intra=0 / bframes=11 / b_pyramid=2 / b_adapt=2 / b_bias=0 / direct=3 / weightb=1 / open_gop=0 / weightp=2 / keyint=240 / keyint_min=23 / scenecut=40 / intra_refresh=0 / rc=2pass / mbtree=0 / bitrate=2232 / ratetol=1.0 / qcomp=0.70 / qpmin=0 / qpmax=69 / qpstep=4 / cplxblur=20.0 / qblur=0.5 / ip_ratio=1.40 / pb_ratio=1.30 / aq=1:0.80
Язык : English
Default : Да
Forced : Нет

Аудио #1
Идентификатор : 2
Формат : AC-3
Формат/Информация : Audio Coding 3
Расширение режима : CM (complete main)
Параметр Endianness формата : Big
Идентификатор кодека : A_AC3
Продолжительность : 2 ч. 13 м.
Вид битрейта : Постоянный
Битрейт : 384 Кбит/сек
Каналы : 6 каналов
Расположение каналов : Front: L C R, Side: L R, LFE
Частота : 48,0 КГц
Метод сжатия : С потерями
Размер потока : 366 Мбайт (13%)
Заголовок : MVO | DD 5.1 @ 384 kbps - IDEAFILM
Язык : Russian
Default : Да
Forced : Нет

Аудио #2
Идентификатор : 3
Формат : AC-3
Формат/Информация : Audio Coding 3
Расширение режима : CM (complete main)
Параметр Endianness формата : Big
Идентификатор кодека : A_AC3
Продолжительность : 2 ч. 13 м.
Вид битрейта : Постоянный
Битрейт : 448 Кбит/сек
Каналы : 6 каналов
Расположение каналов : Front: L C R, Side: L R, LFE
Частота : 48,0 КГц
Метод сжатия : С потерями
Размер потока : 427 Мбайт (15%)
Заголовок : Original | DD 5.1 @ 448 kbps
Язык : English
Default : Нет
Forced : Нет

Текст #1
Идентификатор : 4
Формат : UTF-8
Идентификатор кодека : S_TEXT/UTF8
Идентификатор кодека/Информация : UTF-8 Plain Text
Заголовок : Forced
Язык : Russian
Default : Да
Forced : Нет

Текст #2
Идентификатор : 5
Формат : UTF-8
Идентификатор кодека : S_TEXT/UTF8
Идентификатор кодека/Информация : UTF-8 Plain Text
Заголовок : Full
Язык : English
Default : Нет
Forced : Нет

Текст #3
Идентификатор : 6
Формат : UTF-8
Идентификатор кодека : S_TEXT/UTF8
Идентификатор кодека/Информация : UTF-8 Plain Text
Заголовок : SDH
Язык : English
Default : Нет
Forced : Нет

Меню
00:00:00.000 : en:(01)00:00:00:000
00:09:14.387 : en:(02)00:09:14:387
00:22:06.742 : en:(03)00:22:06:742
00:31:31.931 : en:(04)00:31:31:931
00:41:34.658 : en:(05)00:41:34:658
00:52:18.009 : en:(06)00:52:18:009
01:01:32.063 : en:(07)01:01:32:063
01:09:13.941 : en:(08)01:09:13:941
01:19:00.986 : en:(09)01:19:00:986
01:25:13.650 : en:(10)01:25:13:650
01:32:27.792 : en:(11)01:32:27:792
01:41:16.445 : en:(12)01:41:16:445
01:50:14.441 : en:(13)01:50:14:441
02:01:07.718 : en:(14)02:01:07:718
02:06:34.962 : en:(15)02:06:34:962
02:13:09.773 : en:(16)02:13:09:773

pb.wtf



Скачать Крид: Наследие Рокки через торрент http://i73.fastpic.ru/big/2016/0214/31/8525297e6ed7c19ca1395f12d5b32c31.png Скачать фильм Крид: Наследие Рокки через торрент бесплантно в хорошем качестве Описание: В центре внимания сын Аполло Крида - первого серьезного соперника Рокки Бальбоа на ринге, впоследствии ставшего лучшим другом ... 9.2 10 9
Info! Золотая раздача, скачанное не засчитывается.
Торрент: Зарегистрирован [2016-02-14 13:40] · скачан: 722 раз
Статус: √ проверено
Размер: 2.85 GB
Как cкачать? Как скачать Крид: Наследие Рокки через торрент | qTorrent

% Раздел Тема Автор DL S | L
Фильмы 2015 [DVDrip, WEB-DLRip, HDrip] [ 1.46 GB ] Крид: Наследие Рокки / Creed [2015 BDRip] MVO [IDEAFILM] Twi7ter Скачать
1 | 0
Фильмы 2015 [DVDrip, WEB-DLRip, HDrip] [ 1.46 GB ] Крид: Наследие Рокки / Creed [2015 BDRip-AVC] MVO [IDEAFILM] Без рекламы potroks Скачать
1 | 0
R.G. Resident & PiratVoice - Фильмы, Видео [ 2.18 GB ] Крид: Наследие Рокки / Creed [2015 BDRip-AVC IDEAFILM] R.G.Resident Без рекламы schultz Скачать
1 | 0
R.G. Resident & PiratVoice - Фильмы, Видео [ 10.61 GB ] Крид: Наследие Рокки / Creed [2015 BDRip 1080p IDEAFILM] R.G.Resident Без рекламы schultz Скачать
1 | 0

28-11-2019 20:33  

Отключить всю рекламу на сайте

14-02-2016 13:47 Крид: Наследие Рокки Скачать торрент  

без голосовой рекламыpb.wtf



    Дорогой пользователь! Огромная просьба, поблагодарите релизера, оцените раздачу и оставьте свои комментарий, если Вы скачали Крид: Наследие Рокки через торрент бесплатно! Внесите свою лепту в развитие PiratBit!
    Комментировать посты могут только пользователи прошедшие не сложную регистрацию
    Показать сообщения:    

    Крид: Наследие Рокки через торрент
    Скачать бесплатно Крид: Наследие Рокки
    Крид: Наследие Рокки скачать торрент
    Крид: Наследие Рокки смотреть онлайн
    Cкачать фильм Крид: Наследие Рокки бесплатно
    Крид: Наследие Рокки скачать торрент в хорошем качестве
    Крид: Наследие Рокки смотреть онлайн бесплатно в хорошем качестве


    Вы не можете начинать темы
    Вы не можете отвечать на сообщения
    Вы не можете редактировать свои сообщения
    Вы не можете удалять свои сообщения
    Вы не можете голосовать в опросах
    Вы не можете прикреплять файлы к сообщениям
    Вы можете скачивать файлы