Ссылка на приватное зеркало всего за 1$. Внимание количество ограничено!!!

OK

1+1

iTunes

мы

OK

1

WEB-DLRip

Джокер

Пифагор

Ведьмак / The Witcher сериал

iTunes

ПШазам

ОК

Оно 2

iTunes

30
pack

Вам бонус

ВАЖНО

!!Акция!!

Alien_RageХит недели

RePack

Resident Evil 21

ИГРА 18+

pack

RePack

jed

RePack

fifa19

RePack

Assassins Creed: Odyssey

RePack

NEED FOR SPEED™ PAYBACK

4 сезон

9 сезон

Бесстыжие 9 сезон

Все сериалы

все сериалы на PB.wtf

RePack

FAR CRY 5
  

Спасение / Extraction (Стивен С. Миллер / Steven C. Miller) [2015, триллер, BDRip-AVC от potroks] Dub [iTunes] pb.wtf

Спасение через торрент pb.wtf

Размер: 1.46 GB | Добавлен: 3 года 11 мес. назад | Торрент скачан:759 раз
Скачать  

15-02-2016 07:36 Спасение Скачать торрент  

Спасение / Extraction
«Vengeance runs in the family»
Год выпуска: 2015
Страна: Канада / Emmett/Furla Films, Oasis Films...
Жанр: триллер
Продолжительность: 01:22:22
Перевод: Дубляж [iTunes]
Субтитры: русские (форс.)
Навигация по главам: есть
Режиссер: Стивен С. Миллер / Steven C. Miller
В ролях:

Брюс Уиллис (Leonard Turner), Келлан Латс (Harry Turner), Джина Карано (Victoria), Д.Б. Суини (Ken Robertson), Джошуа Микель (Drake), Стив Култер (Theodore Sitterson), Ден Билзерян (Higgins), Хезер Йохансен (Agent Stevens), Роман Митичян (Dmitri Kovrov), Кристофер Роб Бауэн (Agent Nick Purvis), Роберт Мартин Стейнберг (Ivan), Лидия Халл (Kris)
Описание: Группа террористов похищает бывшего оперативного агента ЦРУ, чтобы использовать его в своих корыстных целях. Не дождавшись помощи от правительства, его сын начинает собственную операцию по спасению отца и возвращению его домой...

Качество: BDRip-AVC
Формат: MKV
Видео кодек: AVC
Аудио кодек: AC3
Видео: 960x540 (16:9), 2153 kbps, 23,976 fps, 0,173 bit/pixel
Аудио: AC3 / 5.1 / 48 kHz / 384 kbps / 16 bit

Релиз группы:
Автор рипа: potroks

Код:

Общее
Уникальный идентификатор : 202617863913102390143898149486621131302 (0x986EC7F8A5A2093B91189E4C07DC8226)
Полное имя : Spaseniye.2015.RUS.BDRip.x264.-HELLYWOOD.mkv
Формат : Matroska
Версия формата : Version 4 / Version 2
Размер файла : 1,46 Гбайт
Продолжительность : 1 ч. 22 м.
Общий поток : 2529 Кбит/сек
Название фильма : Extraction (2015) - HELLYWOOD
Дата кодирования : UTC 2016-02-15 07:27:15
Программа кодирования : mkvmerge v5.9.0 ('On The Loose') built on Dec 15 2012 16:39:58
Библиотека кодирования : libebml v1.3.0 + libmatroska v1.4.0

Видео
Идентификатор : 1
Формат : AVC
Формат/Информация : Advanced Video Codec
Профиль формата : High@L4.1
Параметр CABAC формата : Да
Параметр ReFrames формата : 12 кадров
Идентификатор кодека : V_MPEG4/ISO/AVC
Продолжительность : 1 ч. 22 м.
Битрейт : 2153 Кбит/сек
Ширина : 960 пикселей
Высота : 540 пикселей
Соотношение сторон : 16:9
Режим частоты кадров : Постоянный
Частота кадров : 23,976 кадра/сек
Цветовое пространство : YUV
Субдискретизация насыщенности : 4:2:0
Битовая глубина : 8 бит
Тип развёртки : Прогрессивная
Бит/(Пиксели*Кадры) : 0.173
Размер потока : 1,21 Гбайт (83%)
Заголовок : potroks
Библиотека кодирования : x264 core 146 r2538 121396c
Настройки программы : cabac=1 / ref=12 / deblock=1:-3:-3 / analyse=0x3:0x113 / me=umh / subme=11 / psy=1 / psy_rd=0.94:0.00 / mixed_ref=1 / me_range=48 / chroma_me=1 / trellis=2 / 8x8dct=1 / cqm=0 / deadzone=21,11 / fast_pskip=0 / chroma_qp_offset=-2 / threads=9 / lookahead_threads=2 / sliced_threads=0 / nr=0 / decimate=0 / interlaced=0 / bluray_compat=0 / constrained_intra=0 / bframes=13 / b_pyramid=2 / b_adapt=2 / b_bias=0 / direct=3 / weightb=1 / open_gop=0 / weightp=2 / keyint=240 / keyint_min=23 / scenecut=40 / intra_refresh=0 / rc_lookahead=60 / rc=2pass / mbtree=0 / bitrate=2153 / ratetol=1.0 / qcomp=0.70 / qpmin=0 / qpmax=69 / qpstep=4 / cplxblur=20.0 / qblur=0.5 / vbv_maxrate=14000 / vbv_bufsize=14000 / nal_hrd=none / filler=0 / ip_ratio=1.35 / pb_ratio=1.25 / aq=1:0.90
Язык : English
Default : Да
Forced : Нет

Аудио
Идентификатор : 2
Формат : AC-3
Формат/Информация : Audio Coding 3
Расширение режима : CM (complete main)
Параметр Endianness формата : Big
Идентификатор кодека : A_AC3
Продолжительность : 1 ч. 22 м.
Вид битрейта : Постоянный
Битрейт : 384 Кбит/сек
Каналы : 6 каналов
Расположение каналов : Front: L C R, Side: L R, LFE
Частота : 48,0 КГц
Метод сжатия : С потерями
Размер потока : 226 Мбайт (15%)
Заголовок : Dub | DD 5.1 @ 384 kbps - iTunes
Язык : Russian
Default : Да
Forced : Нет

Текст
Идентификатор : 3
Формат : UTF-8
Идентификатор кодека : S_TEXT/UTF8
Идентификатор кодека/Информация : UTF-8 Plain Text
Заголовок : Forced
Язык : Russian
Default : Да
Forced : Нет

Меню
00:00:00.000 : en:Chapter 1
00:08:22.418 : en:Chapter 2
00:10:11.902 : en:Chapter 3
00:15:34.099 : en:Chapter 4
00:22:12.581 : en:Chapter 5
00:27:31.858 : en:Chapter 6
00:32:59.686 : en:Chapter 7
00:38:20.464 : en:Chapter 8
00:42:50.109 : en:Chapter 9
00:48:30.407 : en:Chapter 10
00:52:02.035 : en:Chapter 11
00:54:57.043 : en:Chapter 12
01:00:14.277 : en:Chapter 13
01:04:38.499 : en:Chapter 14
01:07:11.360 : en:Chapter 15
01:16:44.391 : en:Chapter 16

pb.wtf



Скачать Спасение через торрент http://i75.fastpic.ru/big/2016/0215/c5/52fe063005831860d69bc632a07f07c5.png Скачать фильм Спасение через торрент бесплантно в хорошем качестве Описание: Группа террористов похищает бывшего оперативного агента ЦРУ, чтобы использовать его в своих корыстных целях. Не дождавшись ... 8.9 10 23
Info! Золотая раздача, скачанное не засчитывается.
Торрент: Зарегистрирован [2016-02-15 07:36] · скачан: 759 раз
Статус: √ проверено
Размер: 1.46 GB
Как cкачать? Как скачать Спасение через торрент | qTorrent

% Раздел Тема Автор DL S | L
Фильмы (Blu-ray, BD-Remux, HDDVD) [ 13 GB ] Спасение / Extraction [2015 BD Remux ] Бумер Скачать
1 | 0
Фильмы 2015 [DVDrip, WEB-DLRip, HDrip] [ 747 MB ] Спасение / Extraction [2015 HDRip] Dub () Один 777 Скачать
1 | 0
Фильмы 2015 [DVDrip, WEB-DLRip, HDrip] [ 2.14 GB ] Спасение / Extraction [2015 BDRip-AVC] Dub potroks Скачать
1 | 0
T Фильмы [HD 720p, 1080p] (Хороший звук DUB, MVO) [ 6.89 GB ] Спасение / Extraction [2015 BDRip 1080p ] MVO $-DRON-$ Скачать
1 | 0
T Фильмы [HD 720p, 1080p] (Хороший звук DUB, MVO) [ 4.7 GB ] Спасение / Extraction [2015 BDRip 720p ] MVO $-DRON-$ Скачать
1 | 0
R.G. Resident & PiratVoice - Фильмы, Видео [ 1.46 GB ] Спасение / Extraction [2015 WEB-DLRip-AVC ] [Расширенная версия] R.G.Resident schultz Скачать
1 | 0
Фильмы (WEB-DL 720p, 1080p) [ 2.92 GB ] Спасение / Extraction [2015 WEB-DL 1080p ] [Расширенная версия] schultz Скачать
1 | 0

28-11-2019 20:33  

Отключить всю рекламу на сайте

15-02-2016 12:05 Спасение Скачать торрент  

спасибо за кинчик с Брюсом)pb.wtf



15-02-2016 13:51 Спасение Скачать торрент  

В целом, фильм хороший. Мне понравился и хронометраж нормуль. Показали все что нужно без каких либо затягиваний сюжета.pb.wtf



06-03-2016 10:41 Спасение Скачать торрент  

Неплохо на раз сойдёт вполне.pb.wtf



12-03-2016 12:56 Спасение Скачать торрент  

ООООоооочень тупорылый фильм. Весь сочиться америкосией... Напоминает старый индийский боевик))))). У Брюса закончилась мелочь в кармане и он решил подработать. Игра актёров - полное говно. Это я не говорю о второстепенных и всех одноразово попавших в кадр... Сюжет полностью предсказуем. Очень жаль потраченного времени. В корзину!!!pb.wtf



    Дорогой пользователь! Огромная просьба, поблагодарите релизера, оцените раздачу и оставьте свои комментарий, если Вы скачали Спасение через торрент бесплатно! Внесите свою лепту в развитие PiratBit!
    Комментировать посты могут только пользователи прошедшие не сложную регистрацию
    Показать сообщения:    

    Спасение через торрент
    Скачать бесплатно Спасение
    Спасение скачать торрент
    Спасение смотреть онлайн
    Cкачать фильм Спасение бесплатно
    Спасение скачать торрент в хорошем качестве
    Спасение смотреть онлайн бесплатно в хорошем качестве


    Вы не можете начинать темы
    Вы не можете отвечать на сообщения
    Вы не можете редактировать свои сообщения
    Вы не можете удалять свои сообщения
    Вы не можете голосовать в опросах
    Вы не можете прикреплять файлы к сообщениям
    Вы можете скачивать файлы