Ссылка на приватное зеркало нашего сайта всего за 1$. Внимание количество ограничено!!!

2 сезон

iTunes

1 сезон

1

2 сезон

2 сезон

iTunes

1 сезон

RePack

30

Новинка

ВАЖНО

ИГРА 18+

pack

RePack

MK11
pack

Забери бонус

RePack

jed

!!Акция!!

Alien_Rage

RePack

fifa19

RePack

Assassins Creed: Odyssey

RePack

NEED FOR SPEED™ PAYBACK

4 сезон

9 сезон

Бесстыжие 9 сезон

Все сериалы

все сериалы на PB.wtf

RePack

FAR CRY 5
  

Ночная смена / The Night Shift / Сезон: 1 / Серии 01-08 из 08 (Сэнфорд Букставер, Дэвид Бойд, Марта Кулидж) [2014 г., боевик, драма, комедия, HDTVRip, MVO] (VictoryFilms) pb.wtf

Ночная смена через торрент pb.wtf

Размер: 3.87 GB | Добавлен: 4 года 9 мес. назад | Торрент скачан:55 раз
Скачать  

15-02-2016 08:44 Ночная смена Скачать торрент  

Ночная смена / The Night Shift
Год выпуска: 2014
Страна: США
Жанр: боевик, драма, комедия
Продолжительность: 8 x ~ 00:42:00
Перевод: Любительский многоголосный, закадровый [VictoryFilms]
Субтитры: отсутствуют

Режиссер: Сэнфорд Букставер, Дэвид Бойд, Марта Кулидж
В ролях: Оуэн Мэкен, Джилл Флинт, Кен Люн, Брендан Фер, Даниэлла Алонсо, Роберт Бэйли мл., Джинэнн Гуссен, ДжейАр Лемон, Фредди Родригес, Альма Сиснерос

Описание: История об армейских врачах, работающих в ночную смену в больнице Сан-Антонио.



Качество: HDTVRip
Формат: AVI
Видео кодек: XviD
Аудио кодек: MP3
Видео: 720x400 (16:9), 23.976 fps ~ 1500 Kbps
Аудио: 48 KHz 2 ch ~ 128 Kb/s [VictoryFilms]
Общее
Полное имя : Q:\TorF\The Night Shift (1 сезон)\H04Haya_cmeHa.1_01.avi
Формат : AVI
Формат/Информация : Audio Video Interleave
Размер файла : 496 Мбайт
Продолжительность : 42 м.
Общий поток : 1624 Кбит/сек
Библиотека кодирования : VirtualDub build 35503/release

Видео
Идентификатор : 0
Формат : MPEG-4 Visual
Профиль формата : Advanced Simple@L5
Параметр BVOP формата : 2
Параметр QPel формата : Нет
Параметр GMC формата : Без точки перехода
Параметр матрицы формата : Default (H.263)
Режим смешивания : Сжатый битовый поток
Идентификатор кодека : XVID
Идентификатор кодека/Подсказка : XviD
Продолжительность : 42 м.
Битрейт : 1486 Кбит/сек
Ширина : 720 пикселей
Высота : 400 пикселей
Соотношение сторон : 16:9
Частота кадров : 23,976 кадра/сек
Цветовое пространство : YUV
Субдискретизация насыщенности : 4:2:0
Битовая глубина : 8 бит
Тип развёртки : Прогрессивная
Метод сжатия : С потерями
Бит/(Пиксели*Кадры) : 0.215
Размер потока : 454 Мбайт (92%)
Библиотека кодирования : XviD 64

Аудио
Идентификатор : 1
Формат : MPEG Audio
Версия формата : Version 1
Профиль формата : Layer 3
Режим : Joint stereo
Расширение режима : MS Stereo
Идентификатор кодека : 55
Идентификатор кодека/Подсказка : MP3
Продолжительность : 42 м.
Вид битрейта : Постоянный
Битрейт : 128 Кбит/сек
Каналы : 2 канала
Частота : 48,0 КГц
Метод сжатия : С потерями
Размер потока : 39,1 Мбайт (8%)
Выравнивание : Разделение по промежуткам
Продолжительность промежутка : 42 мс. (1,00 видеокадр)
Время предзагрузки промежутка : 500 мс.

pb.wtf



Скачать Ночная смена через торрент http://pic.kartinco.top/images/11/v18js.jpg Скачать фильм Ночная смена через торрент бесплантно в хорошем качестве Описание: История об армейских врачах, работающих в ночную смену в больнице Сан-Антонио. ... 5.5 10 2
Info! Золотая раздача, скачанное не засчитывается.
Торрент: Зарегистрирован [2016-02-15 08:44] · скачан: 55 раз
Статус: √ проверено
Размер: 3.87 GB
Как cкачать? Как скачать Ночная смена через торрент | qTorrent

28-11-2019 20:33  

Отключить всю рекламу на сайте

    Дорогой пользователь! Огромная просьба, поблагодарите релизера, оцените раздачу и оставьте свои комментарий, если Вы скачали Ночная смена через торрент бесплатно! Внесите свою лепту в развитие PiratBit!
    Комментировать посты могут только пользователи прошедшие не сложную регистрацию
    Показать сообщения:    

    Ночная смена через торрент
    Скачать бесплатно Ночная смена
    Ночная смена скачать торрент
    Ночная смена смотреть онлайн
    Cкачать фильм Ночная смена бесплатно
    Ночная смена скачать торрент в хорошем качестве
    Ночная смена смотреть онлайн бесплатно в хорошем качестве


    Вы не можете начинать темы
    Вы не можете отвечать на сообщения
    Вы не можете редактировать свои сообщения
    Вы не можете удалять свои сообщения
    Вы не можете голосовать в опросах
    Вы не можете прикреплять файлы к сообщениям
    Вы можете скачивать файлы