новый адрес
Мега распродажа FORZA HORIZON 4 ULTIMATE+ВСЕ DLC+ОНЛАЙН всего за 499р. 349 руб. (супер цена). Внимание количество ограничено!!!

iTunes

1+1

iTunes

мы

iTunes

1

iTunes

Чернобыль

iTunes

Ральф против интернета

Лицензия

ПШазам

Лицензия

Игра престолов

Лицензия

30
pack

ВАЖНО

!!Акция!!

Alien_RageХит недели

RePack

Resident Evil 21

ИГРА 18+

pack

RePack

Metro:Exodus

!!Акция!!

Alien_Rage

RePack

fifa19

RePack

Assassins Creed: Odyssey

RePack

NEED FOR SPEED™ PAYBACK

3 сезон

9 сезон

Бесстыжие 9 сезон

Все сериалы

все сериалы на PB.wtf

RePack

FAR CRY 5
Ребята, катастрофически не хватает 1900р. для оплаты серверов за Октябрь (всвязи с блокировками трафик упал в 3 раза), 1-2р., выручайте.
  

Анна Каренина (Татьяна Лукашевич) [1953, СССР, драма, DVDRip от AVP Studio] pb.wtf

Анна Каренина через торрент pb.wtf

Размер: 2.18 GB | Добавлен: 3 года 9 мес. назад | Торрент скачан:18 раз
Скачать  

15-02-2016 09:37 Анна Каренина Скачать торрент  

Анна Каренина
Страна: СССР
Производство: Мосфильм

Жанр: драма
Год выпуска: 1953
Продолжительность: 02:39:09 (01:21:34 + 01:17:35)

Перевод: Не требуется
Cубтитры: нет
Оригинальная аудиодорожка: русский

Режиссер: Татьяна Лукашевич

В ролях:
Алла Тарасова, Николай Соснин, Павел Массальский, Виктор Станицын, Евдокия Алеева, Ангелина Степанова, Мария Дурасова, Владимир Попов, Алексей Закалинский, Нина Сластенина-Шухмина, Григорий Конский, Ирина Гошева, Борис Петкер, Евгения Хованская, Софья Пилявская, Нина Михаловская, Софья Гаррель, Валерия Дементьева, Анна Коломийцева (Блинникова), Галина Шостко, Алексей Жильцов, Николай Свободин, Владимир Кириллин, Владимир Дамский, Василий Макаров...
Полный список актёров

Описание:
Телефильм-спектакль Московского Художественного театра в постановке В.Немировича-Данченко и В.Сахновского. Максимально полно воспроизводит основные сюжетные перипетии и образы театральной версии романа.

Источник: DVD9 R5
Качество видео: DVDRip
Формат видео: AVI

Видео: 688x512 (4:3), 25 fps, XviD ~ 1756 kbps avg, 0.199 bit/pixel
Аудио: 48 kHz, Dolby Digital AC3 2.0, 192 kbps

Раздача от:
Общее
Полное имя : Anna.Karenina.1953.DVDRip_[New-team]_by_AVP_Studio.avi
Формат : AVI
Формат/Информация : Audio Video Interleave
Размер файла : 1,12 Гбайт
Продолжительность : 1 ч. 21 м.
Общий поток : 1958 Кбит/сек
Программа кодирования : VirtualDubMod 1.5.10.3 | www.virtualdub-fr.org || (build 2550/release)
Библиотека кодирования : VirtualDubMod build 2550/release

Видео
Идентификатор : 0
Формат : MPEG-4 Visual
Профиль формата : Advanced Simple@L5
Параметр BVOP формата : 1
Параметр QPel формата : Нет
Параметр GMC формата : Без точки перехода
Параметр матрицы формата : Выборочная
Идентификатор кодека : XVID
Идентификатор кодека/Подсказка : XviD
Продолжительность : 1 ч. 21 м.
Битрейт : 1756 Кбит/сек
Ширина : 688 пикселей
Высота : 512 пикселей
Соотношение сторон : 4:3
Частота кадров : 25,000 кадров/сек
Цветовое пространство : YUV
Субдискретизация насыщенности : 4:2:0
Битовая глубина : 8 бит
Тип развёртки : Прогрессивная
Метод сжатия : С потерями
Бит/(Пиксели*Кадры) : 0.199
Размер потока : 1,00 Гбайт (90%)
Библиотека кодирования : XviD 1.2.1 (UTC 2008-12-04)

Аудио
Идентификатор : 1
Формат : AC-3
Формат/Информация : Audio Coding 3
Расширение режима : CM (complete main)
Параметр Endianness формата : Big
Идентификатор кодека : 2000
Продолжительность : 1 ч. 21 м.
Вид битрейта : Постоянный
Битрейт : 192 Кбит/сек
Каналы : 2 канала
Расположение каналов : Front: L R
Частота : 48,0 КГц
Частота кадров : 31,250 кадров/сек (1536 spf)
Метод сжатия : С потерями
Размер потока : 112 Мбайт (10%)
Выравнивание : Разделение по промежуткам
Продолжительность промежутка : 40 мс. (1,00 видеокадр)
Время предзагрузки промежутка : 500 мс
pb.wtf



Скачать Анна Каренина через торрент http://s018.radikal.ru/i517/1602/03/815fa0212cd4.png Скачать фильм Анна Каренина через торрент бесплантно в хорошем качестве Описание:Телефильм-спектакль Московского Художественного театра в постановке В.Немировича-Данченко и В.Сахновского. Максимально полно ... 5 10 1
Info! Золотая раздача, скачанное не засчитывается.
Торрент: Зарегистрирован [2016-02-15 09:37] · скачан: 18 раз
Статус: √ проверено
Размер: 2.18 GB
Как cкачать? Как скачать Анна Каренина через торрент | qTorrent

% Раздел Тема Автор DL S | L
Разное [ 959 MB ] Лев Толстой - Анна Каренина [Александр Клюквин 2018 64 kbps MP3] bober100 Скачать
1 | 0
Наши фильмы (HD, WEB-DL 720p, 1080p) [ 5.13 GB ] Анна Каренина. История Вронского [2017 WEB-DL 1080p] bober100 Скачать
1 | 0
Наши фильмы (HD, WEB-DL 720p, 1080p) [ 4.09 GB ] Анна Каренина. История Вронского [2017 WEB-DL 720p] smaster Скачать
1 | 0
Наши новые фильмы 2017 [ 2.57 GB ] Анна Каренина. История Вронского [2017 WEB-DLRip-AVC] оригинал White Smoke Скачать
2 | 0
Наши новые фильмы 2017 [ 1.37 GB ] Анна Каренина. История Вронского [2017 WEB-DLRip] oleg8 Скачать
1 | 0
Наши сериалы [ 4.17 GB ] Анна Каренина / Серии: 1-8 из 8 [2017 SATRip-AVC] aleksan55 Скачать
1 | 0
Зарубежные сериалы [ 2.69 GB ] Анна Каренина / Anna Karenina [2013 HDTVRip] DVO bober100 Скачать
1 | 0


>> Регистрируемся здесь <<






Отзывы и комментарии о схеме читаем и пишем здесь: ---> Отзывы и комментарии о схеме

Новые благодарочки в телеграм довольных пользователей:
скриншот   скриншот   скриншот   скриншот   скриншот
    Дорогой пользователь! Огромная просьба, поблагодарите релизера, оцените раздачу и оставьте свои комментарий, если Вы скачали Анна Каренина через торрент бесплатно! Внесите свою лепту в развитие PiratBit!
    Комментировать посты могут только пользователи прошедшие не сложную регистрацию
    Показать сообщения:    

    Анна Каренина через торрент
    Скачать бесплатно Анна Каренина
    Анна Каренина скачать торрент
    Анна Каренина смотреть онлайн
    Cкачать фильм Анна Каренина бесплатно
    Анна Каренина скачать торрент в хорошем качестве
    Анна Каренина смотреть онлайн бесплатно в хорошем качестве


    Вы не можете начинать темы
    Вы не можете отвечать на сообщения
    Вы не можете редактировать свои сообщения
    Вы не можете удалять свои сообщения
    Вы не можете голосовать в опросах
    Вы не можете прикреплять файлы к сообщениям
    Вы можете скачивать файлы