Ссылка на приватное зеркало всего за 1$. Внимание количество ограничено!!!

OK

1+1

iTunes

мы

OK

1

WEB-DLRip

Джокер

Пифагор

Ведьмак / The Witcher сериал

Лицензия

ПШазам

ОК

Оно 2

iTunes

30
pack

Вам бонус

ВАЖНО

!!Акция!!

Alien_RageХит недели

RePack

Resident Evil 21

ИГРА 18+

pack

RePack

jed

!!Акция!!

Alien_Rage

RePack

fifa19

RePack

Assassins Creed: Odyssey

RePack

NEED FOR SPEED™ PAYBACK

4 сезон

9 сезон

Бесстыжие 9 сезон

Все сериалы

все сериалы на PB.wtf

RePack

FAR CRY 5
  

Дипан / Dheepan (Жак Одиар) [2015г., драма, криминал, HDRip] Профессиональный многоголосый [официальный звук] pb.wtf

Дипан через торрент pb.wtf

Размер: 1.37 GB | Добавлен: 3 года 11 мес. назад | Торрент скачан:499 раз
Скачать  

15-02-2016 14:00 Дипан Скачать торрент  

Дипан / Dheepan««Фальшивая семья. Подлинные чувства»»

Год выпуска: 2015
Страна: Франция
Жанр: драма, криминал
Продолжительность: 01:54:50

  • Перевод: Профессиональный многоголосый [официальный звук]
  • Оригинальная аудиодорожка: Нет

Режиссер: Жак Одиар
В ролях: Джесутасан Антонитасан (Dheepan), Калиеасвари Сринивасан (Yalini), Клодин Винаситамбу (Illayaal), Венсан Ротье (Brahim), Фаузи Бенсаиди (Monsieur Habib), Марк Зинга (Youssouf), Басс Дем (Azziz), Франк Фалис (Le gardien du Hall C), Жозефин де Мо (La directrice de l'école), Жан Батист Пуло (Le juriste au foyer), Nathan Anthonypillai (L'interprète), Vasanth Selvam (Colonel Cheran)
Описание: Боевик «Тамильских тигров» бежит из Шри-Ланки после конца гражданской войны. Ради получения убежища во Франции он выдает незнакомую женщину с ребенком за свою семью. Трое беглецов поселяются в предместье Парижа и постепенно сближаются, особенно перед лицом жестокости иммигрантских кварталов...




  • Тип релиза: HDRip
  • Формат: AVI
  • Видео кодек: XviD | Аудио кодек: AC3
  • Видео: XviD, 720x304 (2.35:1), 1504 kbps, 24 fps, 0,286 bpp
  • Аудио: AC3 / 2.0 / 48 kHz / 192 kbps / 16 bit
General
Complete name : C:\торрент\тор\2i5aN.2015.P.HDRip.1400MB.avi
Format : AVI
Format/Info : Audio Video Interleave
File size : 1.37 GiB
Duration : 1h 54mn
Overall bit rate : 1 706 Kbps
Writing application : VirtualDubMod 1.5.10.3 | www.virtualdub-fr.org || (build 2550/release)
Writing library : VirtualDubMod build 2550/release

Video
ID : 0
Format : MPEG-4 Visual
Format profile : Advanced Simple@L5
Format settings, BVOP : 2
Format settings, QPel : No
Format settings, GMC : No warppoints
Format settings, Matrix : Default (MPEG)
Codec ID : XVID
Codec ID/Hint : XviD
Duration : 1h 54mn
Bit rate : 1 504 Kbps
Width : 720 pixels
Height : 304 pixels
Display aspect ratio : 2.35:1
Frame rate : 24.000 fps
Color space : YUV
Chroma subsampling : 4:2:0
Bit depth : 8 bits
Scan type : Progressive
Compression mode : Lossy
Bits/(Pixel*Frame) : 0.286
Stream size : 1.21 GiB (88%)
Writing library : XviD 1.2.1 (UTC 2008-12-04)

Audio
ID : 1
Format : AC-3
Format/Info : Audio Coding 3
Mode extension : CM (complete main)
Format settings, Endianness : Big
Codec ID : 2000
Duration : 1h 54mn
Bit rate mode : Constant
Bit rate : 192 Kbps
Channel(s) : 2 channels
Channel positions : Front: L R
Sampling rate : 48.0 KHz
Frame rate : 31.250 fps (1536 spf)
Compression mode : Lossy
Stream size : 158 MiB (11%)
Alignment : Split accross interleaves
Interleave, duration : 42 ms (1.00 video frame)
Interleave, preload duratio : 500 ms
pb.wtf
!diletant писал(а):

Присутствует реклама казино!



Скачать Дипан через торрент http://pic1.kartinco.top/images/10/sr9qn.jpg Скачать фильм Дипан через торрент бесплантно в хорошем качестве Описание: Боевик «Тамильских тигров» бежит из Шри-Ланки после конца гражданской войны. Ради получения убежища во Франции он выдает ... 9.1 10 25
Info! Золотая раздача, скачанное не засчитывается.
Торрент: Зарегистрирован [2016-02-15 14:00] · скачан: 499 раз
Статус: T временная
Размер: 1.37 GB
Как cкачать? Как скачать Дипан через торрент | qTorrent

28-11-2019 20:33  

Отключить всю рекламу на сайте

15-02-2016 22:08 Дипан Скачать торрент  

евромазохисты начали шлепать толерантные фильмы про несчастных мигрантов... малодушные вырождающиеся бородатые бабы...pb.wtf



15-02-2016 22:08 Дипан Скачать торрент  

Спасибо, однозначно к просмотру pb.wtf



18-02-2016 02:17 Дипан Скачать торрент  

Нормальное адекватное киноpb.wtf



20-02-2016 12:42 Дипан Скачать торрент  

кино от души.надо смотреть.pb.wtf



    Дорогой пользователь! Огромная просьба, поблагодарите релизера, оцените раздачу и оставьте свои комментарий, если Вы скачали Дипан через торрент бесплатно! Внесите свою лепту в развитие PiratBit!
    Комментировать посты могут только пользователи прошедшие не сложную регистрацию
    Показать сообщения:    

    Дипан через торрент
    Скачать бесплатно Дипан
    Дипан скачать торрент
    Дипан смотреть онлайн
    Cкачать фильм Дипан бесплатно
    Дипан скачать торрент в хорошем качестве
    Дипан смотреть онлайн бесплатно в хорошем качестве


    Вы не можете начинать темы
    Вы не можете отвечать на сообщения
    Вы не можете редактировать свои сообщения
    Вы не можете удалять свои сообщения
    Вы не можете голосовать в опросах
    Вы не можете прикреплять файлы к сообщениям
    Вы можете скачивать файлы