Ссылка на приватное зеркало нашего сайта всего за 1$. Внимание количество ограничено!!!

2 сезон

iTunes

1 сезон

1

2 сезон

2 сезон

iTunes

1 сезон

RePack

30

Ultimate

ВАЖНО

ИГРА 18+

pack

RePack

MK11
pack

Забери бонус

RePack

jed

!!Акция!!

Alien_Rage

RePack

fifa19

RePack

Assassins Creed: Odyssey

RePack

NEED FOR SPEED™ PAYBACK

4 сезон

9 сезон

Бесстыжие 9 сезон

Все сериалы

все сериалы на PB.wtf

RePack

FAR CRY 5
  

Галавант / Galavant / Сезон: 2 / Серии 01-10 из 10 (Крис Кох, Джон Фортенберри, Джеймс Гриффитс) [2016 г., мюзикл, комедия, WEB-DL 720p] MVO [GladiolusTV] pb.wtf

Галавант через торрент pb.wtf

Размер: 7.21 GB | Добавлен: 4 года 9 мес. назад | Торрент скачан:53 раза
Скачать  

15-02-2016 15:39 Галавант Скачать торрент  

Галавант / GalavantГод выпуска: 2016
Страна: США
Студия: ABC Studios
Жанр: мюзикл, комедия
Продолжительность : 10 x ~ 00:21:20
Перевод: Любительский многоголосый [GladiolusTV]
Субтитры: русские

Режиссер: Крис Кох, Джон Фортенберри, Джеймс Гриффитс
В ролях: Джошуа Зассе, Тимоти Омандсон, Винни Джонс, Мэллори Джэнсен, Карен Дэвид, Люк Янблад, Даррен Эванс, Бен Прэсли, Стэнли Таунсенд

Описание: История о рыцаре Галаванте и злом короле Ричарде, который похищает его возлюбленную, после чего герой начинает мстить своему врагу.



Качество: WEB-DL 720p
Формат: MKV
Видео кодек: H.264
Аудио кодек: AC3
Видео: AVC, 1280x720 (16:9), 23.976 fps ~ 3821 Kbps
Аудио#1: 48 KHz 6 ch ~ 384 Kb/s [GladiolusTV]
Аудио#2: 48 KHz 6 ch ~ 384 Kb/s [английский]


Общее
Уникальный идентификатор : 65074679694455326580230049747253162463 (0x30F4ED6BB117A0FC6D2721C14F0171DF)
Полное имя : Q:\TorF\Galavant.S02.WEB-DL.720p.GladiolusTV\Galavant.S02E01.WEB-DL.720p.GladiolusTV.mkv
Формат : Matroska
Версия формата : Version 4 / Version 2
Размер файла : 721 Мбайт
Продолжительность : 21 м.
Общий поток : 4683 Кбит/сек
Дата кодирования : UTC 2016-01-09 21:37:54
Программа кодирования : mkvmerge v8.7.0 ('All of the above') 64bit
Библиотека кодирования : libebml v1.3.3 + libmatroska v1.4.4
DURATION : 00:20:05.236000000
NUMBER_OF_FRAMES : 134
NUMBER_OF_BYTES : 6818
_STATISTICS_WRITING_APP : mkvmerge v8.7.0 ('All of the above') 64bit
_STATISTICS_WRITING_DATE_UTC : 2016-01-09 21:37:54
_STATISTICS_TAGS : BPS DURATION NUMBER_OF_FRAMES NUMBER_OF_BYTES

Видео
Идентификатор : 1
Формат : AVC
Формат/Информация : Advanced Video Codec
Профиль формата : High@L3.1
Параметр CABAC формата : Да
Параметр ReFrames формата : 2 кадра
Идентификатор кодека : V_MPEG4/ISO/AVC
Продолжительность : 21 м.
Битрейт : 3821 Кбит/сек
Ширина : 1280 пикселей
Высота : 720 пикселей
Соотношение сторон : 16:9
Частота кадров : 23,976 кадра/сек
Цветовое пространство : YUV
Субдискретизация насыщенности : 4:2:0
Битовая глубина : 8 бит
Тип развёртки : Прогрессивная
Бит/(Пиксели*Кадры) : 0.173
Размер потока : 589 Мбайт (82%)
Язык : English
Default : Да
Forced : Нет

Аудио #1
Идентификатор : 2
Формат : AC-3
Формат/Информация : Audio Coding 3
Расширение режима : CM (complete main)
Идентификатор кодека : A_AC3
Продолжительность : 21 м.
Вид битрейта : Постоянный
Битрейт : 384 Кбит/сек
Каналы : 6 каналов
Расположение каналов : Front: L C R, Side: L R, LFE
Частота : 48,0 КГц
Битовая глубина : 16 бит
Метод сжатия : С потерями
Размер потока : 59,1 Мбайт (8%)
Заголовок : GladiolusTV
Язык : Russian
Default : Да
Forced : Да

Аудио #2
Идентификатор : 3
Формат : AC-3
Формат/Информация : Audio Coding 3
Расширение режима : CM (complete main)
Идентификатор кодека : A_AC3
Продолжительность : 21 м.
Вид битрейта : Постоянный
Битрейт : 384 Кбит/сек
Каналы : 6 каналов
Расположение каналов : Front: L C R, Side: L R, LFE
Частота : 48,0 КГц
Битовая глубина : 16 бит
Метод сжатия : С потерями
Размер потока : 59,1 Мбайт (8%)
Заголовок : Оригинал
Язык : English
Default : Нет
Forced : Нет

Текст
Идентификатор : 4
Формат : UTF-8
Идентификатор кодека : S_TEXT/UTF8
Идентификатор кодека/Информация : UTF-8 Plain Text
Заголовок : Тексты песен и надписи
Язык : Russian
Default : Да
Forced : Да

Галавант скачать торрент

pb.wtf



Скачать Галавант через торрент http://pic.kartinco.top/images/11/9lcan.jpg Скачать фильм Галавант через торрент бесплантно в хорошем качестве Описание: История о рыцаре Галаванте и злом короле Ричарде, который похищает его возлюбленную, после чего герой начинает мстить своему ... 9.5 10 2
Info! Золотая раздача, скачанное не засчитывается.
Торрент: Зарегистрирован [2016-02-15 15:39] · скачан: 53 раз
Статус: √ проверено
Размер: 7.21 GB
Как cкачать? Как скачать Галавант через торрент | qTorrent

28-11-2019 20:33  

Отключить всю рекламу на сайте

    Дорогой пользователь! Огромная просьба, поблагодарите релизера, оцените раздачу и оставьте свои комментарий, если Вы скачали Галавант через торрент бесплатно! Внесите свою лепту в развитие PiratBit!
    Комментировать посты могут только пользователи прошедшие не сложную регистрацию
    Показать сообщения:    

    Галавант через торрент
    Скачать бесплатно Галавант
    Галавант скачать торрент
    Галавант смотреть онлайн
    Cкачать фильм Галавант бесплатно
    Галавант скачать торрент в хорошем качестве
    Галавант смотреть онлайн бесплатно в хорошем качестве


    Вы не можете начинать темы
    Вы не можете отвечать на сообщения
    Вы не можете редактировать свои сообщения
    Вы не можете удалять свои сообщения
    Вы не можете голосовать в опросах
    Вы не можете прикреплять файлы к сообщениям
    Вы можете скачивать файлы