Ссылка на приватное зеркало нашего сайта всего за 1$. Внимание количество ограничено!!!

2 сезон

iTunes

1 сезон

1

iTunes

iTunes

iTunes

1 сезон

RePack

30

ИГРА 18+

pack

ВАЖНО

!!Акция!!

Alien_RageХит недели

RePack

MK11
pack

Забери бонус

RePack

jed

!!Акция!!

Alien_Rage

RePack

fifa19

RePack

Assassins Creed: Odyssey

RePack

NEED FOR SPEED™ PAYBACK

4 сезон

9 сезон

Бесстыжие 9 сезон

Все сериалы

все сериалы на PB.wtf

RePack

FAR CRY 5
  

Макбет / Macbeth (Джастин Курзель / Justin Kurzel) [2015, драма, военный, BDRip 720p / iTunes] pb.wtf

Макбет через торрент pb.wtf

Размер: 4.67 GB | Добавлен: 4 года 8 мес. назад | Торрент скачан:303 раза
Скачать  

15-02-2016 17:47 Макбет Скачать торрент  

Информация о фильме

Название: Макбет

Оригинальное название: Macbeth

Страна: Великобритания, США, Франция

Студия: See-Saw Films, DMC Film, Anton Capital Entertainment

Жанр: драма, военный

Год выпуска: 2015

Продолжительность: 01:52:57

Перевод: Профессиональный (дублированный) iTunes

Cубтитры: Rus, Eng

Оригинальная аудиодорожка: английский

Режиссер: Джастин Курзель / Justin Kurzel

В ролях: Майкл Фассбендер, Марион Котийяр, Пэдди Консидайн, Шон Харрис, Джек Рейнор, Элизабет Дебики, Дэвид Тьюлис, Росс Андерсон, Дэвид Хейман, Морис Роевз

Описание: Холодные поля Шотландии, военный лагерь, всегда готовый переместиться в другое место. Макбет всегда на войне, его жена, недавно потерявшая ребенка, боится потерять еще и мужа. Чтобы удержать его рядом, она начинает свой проект по устранению конкурентов в борьбе за королевскую корону.



Тип релиза: BDRip 720p

Контейнер: MKV

Видео: MPEG-4 AVC, 4782 Кбит/с, 1280x536, 24.000 fps

Аудио: Rus, AC3, 384 kb/s (6 ch), 48 kHz

Аудио 2: Eng, AC3, 640 kb/s (6 ch), 48 kHz

Формат субтитров: softsub (SRT)
x264 [info]: frame I:1093 Avg QP:12.26 size: 89278

x264 [info]: frame P:31549 Avg QP:13.26 size: 44064

x264 [info]: frame B:129897 Avg QP:14.47 size: 20467

Format : Matroska

Format version : Version 4 / Version 2

File size : 4.67 GiB

Duration : 1h 52mn

Overall bit rate : 5 924 Kbps

Movie name : Макбет. (Tonik)

Encoded date : UTC 2016-02-14 20:28:11

Writing application : mkvmerge v7.1.0 ('Good Love') 64bit built on Jul 27 2014 13:06:55

Writing library : libebml v1.3.0 + libmatroska v1.4.1

_STATISTICS_WRITING_APP : mkvmerge v7.1.0 ('Good Love') 64bit built on Jul 27 2014 13:06:55

_STATISTICS_WRITING_DATE_UTC : 2016-02-14 20:28:11

_STATISTICS_TAGS : BPS DURATION NUMBER_OF_FRAMES NUMBER_OF_BYTES

DURATION : 01:52:51.456000000

NUMBER_OF_FRAMES : 211608

NUMBER_OF_BYTES : 325029888

Video

ID : 1

Format : AVC

Format/Info : Advanced Video Codec

Format profile : High@L4.1

Format settings, CABAC : Yes

Format settings, ReFrames : 12 frames

Codec ID : V_MPEG4/ISO/AVC

Duration : 1h 52mn

Bit rate : 4 782 Kbps

Width : 1 280 pixels

Height : 536 pixels

Display aspect ratio : 2.40:1

Frame rate mode : Constant

Frame rate : 24.000 fps

Color space : YUV

Chroma subsampling : 4:2:0

Bit depth : 8 bits

Scan type : Progressive

Bits/(Pixel*Frame) : 0.290

Stream size : 3.77 GiB (81%)

Writing library : x264 core 148 r2597 e86f3a1

Encoding settings : cabac=1 / ref=12 / deblock=1:-3:-3 / analyse=0x3:0x113 / me=umh / subme=11 / psy=1 / psy_rd=1.00:0.00 / mixed_ref=1 / me_range=32 / chroma_me=1 / trellis=2 / 8x8dct=1 / cqm=0 / deadzone=21,11 / fast_pskip=0 / chroma_qp_offset=-2 / threads=12 / lookahead_threads=2 / sliced_threads=0 / nr=0 / decimate=0 / interlaced=0 / bluray_compat=0 / constrained_intra=0 / bframes=9 / b_pyramid=2 / b_adapt=2 / b_bias=0 / direct=3 / weightb=1 / open_gop=0 / weightp=2 / keyint=240 / keyint_min=24 / scenecut=40 / intra_refresh=0 / rc_lookahead=40 / rc=crf / mbtree=0 / crf=16.8 / qcomp=0.70 / qpmin=0 / qpmax=69 / qpstep=4 / vbv_maxrate=40000 / vbv_bufsize=30000 / crf_max=0.0 / nal_hrd=none / filler=0 / ip_ratio=1.20 / pb_ratio=1.20 / aq=3:0.85

Language : English

Default : Yes

Forced : No

_STATISTICS_WRITING_APP : mkvmerge v7.1.0 ('Good Love') 64bit built on Jul 27 2014 13:06:55

_STATISTICS_WRITING_DATE_UTC : 2016-02-14 20:28:11

_STATISTICS_TAGS : BPS DURATION NUMBER_OF_FRAMES NUMBER_OF_BYTES

DURATION : 01:52:52.459000000

NUMBER_OF_FRAMES : 162539

NUMBER_OF_BYTES : 4146351889

Audio #1

ID : 2

Format : AC-3

Format/Info : Audio Coding 3

Mode extension : CM (complete main)

Format settings, Endianness : Big

Codec ID : A_AC3

Duration : 1h 52mn

Bit rate mode : Constant

Bit rate : 384 Kbps

Channel(s) : 6 channels

Channel positions : Front: L C R, Side: L R, LFE

Sampling rate : 48.0 KHz

Bit depth : 16 bits

Compression mode : Lossy

Stream size : 310 MiB (6%)

Language : Russian

Default : Yes

Forced : No

Audio #2

ID : 3

Format : AC-3

Format/Info : Audio Coding 3

Mode extension : CM (complete main)

Format settings, Endianness : Big

Codec ID : A_AC3

Duration : 1h 52mn

Bit rate mode : Constant

Bit rate : 640 Kbps

Channel(s) : 6 channels

Channel positions : Front: L C R, Side: L R, LFE

Sampling rate : 48.0 KHz

Bit depth : 16 bits

Compression mode : Lossy

Stream size : 517 MiB (11%)

Language : English

Default : No

Forced : No

Text #1

ID : 4

Format : UTF-8

Codec ID : S_TEXT/UTF8

Codec ID/Info : UTF-8 Plain Text

Language : Russian

Default : No

Forced : No

Text #2

ID : 5

Format : UTF-8

Codec ID : S_TEXT/UTF8

Codec ID/Info : UTF-8 Plain Text

Language : English

Default : No

Forced : No

Text #3

ID : 6

Format : UTF-8

Codec ID : S_TEXT/UTF8

Codec ID/Info : UTF-8 Plain Text

Title : SDH

Language : English

Default : No

Forced : No

Menu

00:00:00.000 : en:Chapter 1

00:09:44.500 : en:Chapter 2

00:18:19.417 : en:Chapter 3

00:33:11.042 : en:Chapter 4

00:42:30.625 : en:Chapter 5

00:51:18.042 : en:Chapter 6

01:00:19.250 : en:Chapter 7

01:11:23.125 : en:Chapter 8

01:16:26.083 : en:Chapter 9

01:26:24.583 : en:Chapter 10

01:33:59.917 : en:Chapter 11

01:46:27.000 : en:Chapter 12
pb.wtf



Скачать Макбет через торрент http://i75.fastpic.ru/big/2016/0214/72/4174a89694841e50902e9cb566086472.jpg Скачать фильм Макбет через торрент бесплантно в хорошем качестве Описание: Холодные поля Шотландии, военный лагерь, всегда готовый переместиться в другое место. Макбет всегда на войне, его жена, недавно ... 10 10 7
Торрент: Зарегистрирован [2016-02-15 17:47] · скачан: 303 раз
Статус: √ проверено
Размер: 4.67 GB
Как cкачать? Как скачать Макбет через торрент | qTorrent

% Раздел Тема Автор DL S | L
Фильмы 2016 [DVDrip, WEB-DLRip, HDrip] (DUB, MVO) [ 1.39 GB ] Леди Макбет / Lady Macbeth [2016 экранизация BDRip-AVC] MVO - ExKinoRay Enigma2010 Скачать
1 | 0
Фильмы [HD 720p, 1080p] (Хороший звук DUB, MVO) [ 8.64 GB ] Леди Макбет / Lady Macbeth [2016 BDRip 1080p] MVO bober100 Скачать
1 | 0
Фильмы 2015 [DVDrip, WEB-DLRip, HDrip] [ 2.18 GB ] Макбет / Macbeth [2015 военный BDRip-AVC] [] potroks Скачать
2 | 0
Фильмы 2015 [DVDrip, WEB-DLRip, HDrip] [ 1.46 GB ] Макбет / Macbeth [2015 военный BDRip-AVC] [] potroks Скачать
1 | 0
Фильмы 2015 [DVDrip, WEB-DLRip, HDrip] [ 1.46 GB ] Макбет / Macbeth [2015 военный BDRip] DUB Twi7ter Скачать
2 | 0
Фильмы (DVD фильмы) [ 5.54 GB ] Макбет / Macbeth [2015 военный DVD9] DUB R5 voovaz Скачать
1 | 0
Фильмы 2015 [DVDrip, WEB-DLRip, HDrip] [ 2.18 GB ] Макбет / Macbeth [2015 военный HDRip ""] coc900 Скачать
1 | 0

28-11-2019 20:33  

Отключить всю рекламу на сайте

15-02-2016 17:50 Макбет Скачать торрент  



pb.wtf



    Дорогой пользователь! Огромная просьба, поблагодарите релизера, оцените раздачу и оставьте свои комментарий, если Вы скачали Макбет через торрент бесплатно! Внесите свою лепту в развитие PiratBit!
    Комментировать посты могут только пользователи прошедшие не сложную регистрацию
    Показать сообщения:    

    Макбет через торрент
    Скачать бесплатно Макбет
    Макбет скачать торрент
    Макбет смотреть онлайн
    Cкачать фильм Макбет бесплатно
    Макбет скачать торрент в хорошем качестве
    Макбет смотреть онлайн бесплатно в хорошем качестве


    Вы не можете начинать темы
    Вы не можете отвечать на сообщения
    Вы не можете редактировать свои сообщения
    Вы не можете удалять свои сообщения
    Вы не можете голосовать в опросах
    Вы не можете прикреплять файлы к сообщениям
    Вы можете скачивать файлы