Ссылка на приватное зеркало нашего сайта всего за 1$. Внимание количество ограничено!!!

2 сезон

iTunes

1 сезон

1

2 сезон

2 сезон

iTunes

1 сезон

RePack

30

Новинка

ВАЖНО

ИГРА 18+

pack

RePack

MK11
pack

Забери бонус

RePack

jed

!!Акция!!

Alien_Rage

RePack

fifa19

RePack

Assassins Creed: Odyssey

RePack

NEED FOR SPEED™ PAYBACK

4 сезон

9 сезон

Бесстыжие 9 сезон

Все сериалы

все сериалы на PB.wtf

RePack

FAR CRY 5
  

Синистер 2 / Sinister 2 (Киран Фой / Ciarán Foy) [2015, ужасы, триллер, детектив, BDRip-AVC от potroks] Dub [НТВ+] pb.wtf

Синистер 2 через торрент pb.wtf

Размер: 2.14 GB | Добавлен: 4 года 9 мес. назад | Торрент скачан:574 раза
Скачать  

15-02-2016 18:31 Синистер 2 Скачать торрент  

Синистер 2 / Sinister 2
«Бойся того, во что играют твои дети»
Год выпуска: 2015
Страна: США, Великобритания / Entertainment One, Blumhouse Productions...
Жанр: ужасы, триллер, детектив
Продолжительность: 01:33:02
Перевод: Дубляж [НТВ+]
Субтитры: русские (форс.), английские (Full + SDH + SDH-Colored)
Навигация по главам: есть
Режиссер: Киран Фой / Ciarán Foy
В ролях:

Джеймс Рэнсон (Ex-Deputy So & So), Шаннин Соссамон (Courtney Collins), Роберт Дэниэл Слоун (Dylan Collins), Дартаниан Слоун (Zach Collins), Лиа Коко (Clint Collins), Тейт Эллингтон (Dr. Stomberg), Джон Бизли (Father Rodriguez), Лукас Джейд Зуманн (Milo), Джейден Клейн (Ted), Лайла Хейли (Emma), Кейден М. Фриц (Peter), Оливия Рэйни (Catherine)
Описание: Сиквел рассказывает о молодом шерифе, решившем продолжить расследование серии таинственных убийств, описанных в первой части фильма, из-за которых в своё время потерял жизнь друг шерифа, Элиссон Освальф.
Расследование приводит шерифа к ферме, где он знакомится с дружелюбной семьей - близнецами Заком, Диланом и их матерью Кортни. Семьей, сбежавшей от издевательств жестокого отца. Каждый день, проведенный в этом доме, может стать для них последним, как и для всех, кто жил здесь ранее и попал в поле зрения самой смерти - беспощадного демона Багула.

Качество: BDRip-AVC
Формат: MKV
Видео кодек: AVC
Аудио кодек: AC3
Видео: 1176x490 (2.40:1), 2458 kbps, 25 fps, 0.171 bit/pixel
Аудио#1: AC3 / 5.1 / 48 kHz / 384 kbps / 16 bit | RUS
Аудио#2: AC3 / 5.1 / 48 kHz / 448 kbps / 16 bit | ENG

Релиз группы:
Автор рипа: potroks

Код:

Общее
Уникальный идентификатор : 175464903417960603448421997418718517662 (0x84014FA8B78A7DC690E2998C58B9599E)
Полное имя : Sinister.2.2015.DUAL.BDRip.x264.-HELLYWOOD.mkv
Формат : Matroska
Версия формата : Version 4 / Version 2
Размер файла : 2,14 Гбайт
Продолжительность : 1 ч. 33 м.
Общий поток : 3287 Кбит/сек
Название фильма : Sinister 2 (2015) - HELLYWOOD
Дата кодирования : UTC 2016-02-13 03:04:51
Программа кодирования : mkvmerge v5.9.0 ('On The Loose') built on Dec 15 2012 16:39:58
Библиотека кодирования : libebml v1.3.0 + libmatroska v1.4.0

Видео
Идентификатор : 1
Формат : AVC
Формат/Информация : Advanced Video Codec
Профиль формата : High@L4.1
Параметр CABAC формата : Да
Параметр ReFrames формата : 10 кадров
Идентификатор кодека : V_MPEG4/ISO/AVC
Продолжительность : 1 ч. 33 м.
Битрейт : 2458 Кбит/сек
Ширина : 1176 пикселей
Высота : 490 пикселей
Соотношение сторон : 2,40:1
Режим частоты кадров : Постоянный
Частота кадров : 25,000 кадров/сек
Цветовое пространство : YUV
Субдискретизация насыщенности : 4:2:0
Битовая глубина : 8 бит
Тип развёртки : Прогрессивная
Бит/(Пиксели*Кадры) : 0.171
Размер потока : 1,55 Гбайт (73%)
Заголовок : potroks
Библиотека кодирования : x264 core 146 r2538 121396c
Настройки программы : cabac=1 / ref=10 / deblock=1:-2:-2 / analyse=0x3:0x113 / me=umh / subme=11 / psy=1 / psy_rd=1.02:0.06 / mixed_ref=1 / me_range=48 / chroma_me=1 / trellis=2 / 8x8dct=1 / cqm=0 / deadzone=21,11 / fast_pskip=0 / chroma_qp_offset=-3 / threads=9 / lookahead_threads=2 / sliced_threads=0 / nr=0 / decimate=0 / interlaced=0 / bluray_compat=0 / constrained_intra=0 / bframes=11 / b_pyramid=2 / b_adapt=2 / b_bias=0 / direct=3 / weightb=1 / open_gop=0 / weightp=2 / keyint=250 / keyint_min=23 / scenecut=40 / intra_refresh=0 / rc_lookahead=60 / rc=2pass / mbtree=0 / bitrate=2458 / ratetol=1.0 / qcomp=0.70 / qpmin=0 / qpmax=69 / qpstep=4 / cplxblur=20.0 / qblur=0.5 / vbv_maxrate=14000 / vbv_bufsize=14000 / nal_hrd=none / filler=0 / ip_ratio=1.40 / pb_ratio=1.30 / aq=1:0.80
Язык : English
Default : Да
Forced : Нет

Аудио #1
Идентификатор : 2
Формат : AC-3
Формат/Информация : Audio Coding 3
Расширение режима : CM (complete main)
Параметр Endianness формата : Big
Идентификатор кодека : A_AC3
Продолжительность : 1 ч. 33 м.
Вид битрейта : Постоянный
Битрейт : 384 Кбит/сек
Каналы : 6 каналов
Расположение каналов : Front: L C R, Side: L R, LFE
Частота : 48,0 КГц
Метод сжатия : С потерями
Размер потока : 256 Мбайт (12%)
Заголовок : Dub | DD 5.1 @ 384 kbps - NTV+
Язык : Russian
Default : Да
Forced : Нет

Аудио #2
Идентификатор : 3
Формат : AC-3
Формат/Информация : Audio Coding 3
Расширение режима : CM (complete main)
Параметр Endianness формата : Big
Идентификатор кодека : A_AC3
Продолжительность : 1 ч. 33 м.
Вид битрейта : Постоянный
Битрейт : 448 Кбит/сек
Каналы : 6 каналов
Расположение каналов : Front: L C R, Side: L R, LFE
Частота : 48,0 КГц
Метод сжатия : С потерями
Размер потока : 298 Мбайт (14%)
Заголовок : Original | DD 5.1 @ 448 kbps
Язык : English
Default : Нет
Forced : Нет

Текст #1
Идентификатор : 4
Формат : UTF-8
Идентификатор кодека : S_TEXT/UTF8
Идентификатор кодека/Информация : UTF-8 Plain Text
Заголовок : Forced
Язык : Russian
Default : Да
Forced : Нет

Текст #2
Идентификатор : 5
Формат : UTF-8
Идентификатор кодека : S_TEXT/UTF8
Идентификатор кодека/Информация : UTF-8 Plain Text
Заголовок : Full
Язык : English
Default : Нет
Forced : Нет

Текст #3
Идентификатор : 6
Формат : UTF-8
Идентификатор кодека : S_TEXT/UTF8
Идентификатор кодека/Информация : UTF-8 Plain Text
Заголовок : SDH
Язык : English
Default : Нет
Forced : Нет

Текст #4
Идентификатор : 7
Формат : UTF-8
Идентификатор кодека : S_TEXT/UTF8
Идентификатор кодека/Информация : UTF-8 Plain Text
Заголовок : SDH-Colored
Язык : English
Default : Нет
Forced : Нет

Меню
00:00:00.000 : en:(01)00:00:00:000
00:05:00.000 : en:(02)00:05:00:000
00:10:00.000 : en:(03)00:10:00:000
00:15:00.000 : en:(04)00:15:00:000
00:20:00.000 : en:(05)00:20:00:000
00:25:00.000 : en:(06)00:25:00:000
00:30:00.000 : en:(07)00:30:00:000
00:35:00.000 : en:(08)00:35:00:000
00:40:00.000 : en:(09)00:40:00:000
00:45:00.000 : en:(10)00:45:00:000
00:50:00.000 : en:(11)00:50:00:000
00:55:00.000 : en:(12)00:55:00:000
01:00:00.000 : en:(13)01:00:00:000
01:05:00.000 : en:(14)01:05:00:000
01:10:00.000 : en:(15)01:10:00:000
01:15:00.000 : en:(16)01:15:00:000
01:20:00.000 : en:(17)01:20:00:000
01:25:00.000 : en:(18)01:25:00:000
01:30:00.000 : en:(19)01:30:00:000

pb.wtf



Скачать Синистер 2 через торрент http://i66.fastpic.ru/big/2016/0206/0c/89d2c5f579b3d475669ce8817fd1230c.png Скачать фильм Синистер 2 через торрент бесплантно в хорошем качестве Описание: Сиквел рассказывает о молодом шерифе, решившем продолжить расследование серии таинственных убийств, описанных в первой части ... 8.3 10 10
Info! Золотая раздача, скачанное не засчитывается.
Торрент: Зарегистрирован [2016-02-15 18:31] · скачан: 574 раз
Статус: √ проверено
Размер: 2.14 GB
Как cкачать? Как скачать Синистер 2 через торрент | qTorrent

% Раздел Тема Автор DL S | L
Фильмы (Blu-ray, BD-Remux, HDDVD) [ 31.01 GB ] Синистер 2 / Sinister 2 [2015 Blu-ray RUS 1080p] [Rus Transfer] DUB [] bober100 Скачать
1 | 0
Фильмы 2015 [DVDrip, WEB-DLRip, HDrip] [ 1.46 GB ] Синистер 2 / Sinister 2 [2015 BDRip] - [] Twi7ter Скачать
2 | 0
Фильмы 2015 [DVDrip, WEB-DLRip, HDrip] [ 1.46 GB ] Синистер 2 / Sinister 2 [2015 BDRip] [Rus Transfer] DUB [] bober100 Скачать
1 | 0
T Фильмы (Blu-ray, BD-Remux, HDDVD) [ 12.37 GB ] Синистер 2 / Sinister 2 [2015 ] - [Чистый звук] Blu-ray Remux [1080p] DINO-UFO Скачать
1 | 0
Фильмы 2015 [DVDrip, WEB-DLRip, HDrip] [ 1.42 GB ] Синистер 2 / Sinister 2 [2015 BDRip ] Twi7ter Скачать
2 | 0
Фильмы 2015 [DVDrip, WEB-DLRip, HDrip] [ 1.42 GB ] Синистер 2 / Sinister 2 [2015 BDRip - [НТВ Twi7ter Скачать
1 | 0
Фильмы 2015 [DVDrip, WEB-DLRip, HDrip] [ 1.42 GB ] Синистер 2 / Sinister 2 [2015 BDRip-AVC] Dub [НТВ potroks Скачать
1 | 0

28-11-2019 20:33  

Отключить всю рекламу на сайте

17-02-2016 13:52 Синистер 2 Скачать торрент  

хрень, на 15 минуте выключил. Первая часть была намного лучше.pb.wtf



05-03-2016 11:23 Синистер 2 Скачать торрент  

первую часть не смотрел. а,это, хреньpb.wtf



    Дорогой пользователь! Огромная просьба, поблагодарите релизера, оцените раздачу и оставьте свои комментарий, если Вы скачали Синистер 2 через торрент бесплатно! Внесите свою лепту в развитие PiratBit!
    Комментировать посты могут только пользователи прошедшие не сложную регистрацию
    Показать сообщения:    

    Синистер 2 через торрент
    Скачать бесплатно Синистер 2
    Синистер 2 скачать торрент
    Синистер 2 смотреть онлайн
    Cкачать фильм Синистер 2 бесплатно
    Синистер 2 скачать торрент в хорошем качестве
    Синистер 2 смотреть онлайн бесплатно в хорошем качестве


    Вы не можете начинать темы
    Вы не можете отвечать на сообщения
    Вы не можете редактировать свои сообщения
    Вы не можете удалять свои сообщения
    Вы не можете голосовать в опросах
    Вы не можете прикреплять файлы к сообщениям
    Вы можете скачивать файлы