Всегда рабочее зеркало без VPN и Proxy просто перед .vidak.icu напиши любое слово или цифру, Пример http://zas6.vidak.icu

Лицензия

MVO

1 сезон

1

1 сезон

iTunes

1 сезон

13

1 сезон

Deluxe

pack

Рекомендуем

Repack

30

ВАЖНО

RePack

MK11

RePack

jed

RePack

fifa19

RePack

RDR2

RePack

NEED FOR SPEED™ PAYBACK

Кинопоиск HD

6 сезон

 Острые козырьки 6 сезон

Все сериалы

все сериалы на PB.wtf

RePack

FAR CRY 5
  
Magnet ссылка

Самый лучший день (Жора Крыжовников) [2015, комедия, музыка, BDRip-AVC от potroks] Лицензия pb.wtf

Самый лучший день через торрент pb.wtf

Размер: 2.18 GB | Добавлен: 6 лет 6 мес. назад | Торрент скачан:1432 раза
Смотреть онлайн Самый лучший день | Скачать    Ребята, помогите собрать деньги на оплату серверов!!!

16-02-2016 05:54 Самый лучший день Скачать торрент  

Самый лучший день
«Душа поёт!»
Год выпуска: 2015
Страна: Россия / Базелевс Продакшн
Жанр: комедия, музыка
Продолжительность: 01:47:04
Перевод: Оригинал [BD RUS]
Навигация по главам: есть
Режиссер: Жора Крыжовников
В ролях:

Дмитрий Нагиев (Петр), Юлия Александрова (Оля), Ольга Серябкина (Алина), Инна Чурикова (Любовь), Михаил Боярский (Геннадий), Елена Яковлева (Татьяна), Владислав Ветров (Викентий), Валентина Мазунина (Анжела), Ян Цапник (начальник ОВД), Андрей Малахов (играет самого себя), Толепберген Байсакалов (Касим), Юлия Синицына (жена Касима)
Описание: Успешному сотруднику ДПС Пете Васютину уже давно пора заводить семью, а он живет с мамой, хозяйкой придорожного кафе. И невеста есть - королева бензоколонки, кассирша Оля. В тот самый день, когда Петя решает сделать Оле предложение, в его служебную машину врезается пьяная поп-звезда Алина Шёпот. Чтобы избежать наказания, Алина решает соблазнить Петю...

Качество: BDRip-AVC
Формат: MKV
Видео кодек: AVC
Аудио кодек: AC3
Видео: 944x512 (1,85:1), 2531 kbps, 24 fps, 0.218 bit/pixel
Аудио: AC3 / 5.1 / 48 kHz / 384 kbps / 16 bit

Релиз группы:
Автор рипа: potroks

Код:

Общее
Уникальный идентификатор : 197523482871296577332274807781803069413 (0x9499A398010E9291B8AD85F694328FE5)
Полное имя : Samyi.Luchshyi.Den'.2015.RUS.BDRip.x264.-HELLYWOOD.mkv
Формат : Matroska
Версия формата : Version 4 / Version 2
Размер файла : 2,18 Гбайт
Продолжительность : 1 ч. 47 м.
Общий поток : 2913 Кбит/сек
Название фильма : Самый лучший день (2015) - HELLYWOOD
Дата кодирования : UTC 2016-02-15 20:45:37
Программа кодирования : mkvmerge v5.9.0 ('On The Loose') built on Dec 15 2012 16:39:58
Библиотека кодирования : libebml v1.3.0 + libmatroska v1.4.0

Видео
Идентификатор : 1
Формат : AVC
Формат/Информация : Advanced Video Codec
Профиль формата : [email protected]
Параметр CABAC формата : Да
Параметр ReFrames формата : 12 кадров
Идентификатор кодека : V_MPEG4/ISO/AVC
Продолжительность : 1 ч. 47 м.
Битрейт : 2531 Кбит/сек
Ширина : 944 пикселя
Высота : 512 пикселей
Соотношение сторон : 1,85:1
Режим частоты кадров : Постоянный
Частота кадров : 24,000 кадра/сек
Цветовое пространство : YUV
Субдискретизация насыщенности : 4:2:0
Битовая глубина : 8 бит
Тип развёртки : Прогрессивная
Бит/(Пиксели*Кадры) : 0.218
Размер потока : 1,85 Гбайт (85%)
Заголовок : potroks
Библиотека кодирования : x264 core 148 r2665M a01e339
Настройки программы : cabac=1 / ref=12 / deblock=1:-2:-2 / analyse=0x3:0x133 / me=umh / subme=11 / psy=1 / psy_rd=1.05:0.10 / mixed_ref=1 / me_range=48 / chroma_me=1 / trellis=2 / 8x8dct=1 / cqm=0 / deadzone=21,11 / fast_pskip=0 / chroma_qp_offset=-3 / threads=9 / lookahead_threads=2 / sliced_threads=0 / nr=0 / decimate=1 / interlaced=0 / bluray_compat=0 / constrained_intra=0 / bframes=13 / b_pyramid=2 / b_adapt=2 / b_bias=0 / direct=3 / weightb=1 / open_gop=0 / weightp=2 / keyint=240 / keyint_min=23 / scenecut=40 / intra_refresh=0 / rc=2pass / mbtree=0 / bitrate=2531 / ratetol=1.0 / qcomp=0.70 / qpmin=0 / qpmax=69 / qpstep=4 / cplxblur=20.0 / qblur=0.5 / ip_ratio=1.35 / pb_ratio=1.25 / aq=1:0.80
Язык : Russian
Default : Да
Forced : Нет
Цветовой диапазон : Limited
Основные цвета : BT.709
Характеристики трансфера : BT.709
Коэффициенты матрицы : BT.709

Аудио
Идентификатор : 2
Формат : AC-3
Формат/Информация : Audio Coding 3
Расширение режима : CM (complete main)
Параметр Endianness формата : Big
Идентификатор кодека : A_AC3
Продолжительность : 1 ч. 47 м.
Вид битрейта : Постоянный
Битрейт : 384 Кбит/сек
Каналы : 6 каналов
Расположение каналов : Front: L C R, Side: L R, LFE
Частота : 48,0 КГц
Метод сжатия : С потерями
Задержка видео : 27 мс.
Размер потока : 294 Мбайт (13%)
Заголовок : Original | DD 5.1 @ 384 kbps - Blu-Ray RUS
Язык : Russian
Default : Да
Forced : Нет

Меню
00:00:00.000 : :(01)00:00:00:000
00:09:06.958 : :(02)00:09:06:958
00:19:34.291 : :(03)00:19:34:291
00:28:42.625 : :(04)00:28:42:625
00:37:55.125 : :(05)00:37:55:125
00:47:10.416 : :(06)00:47:10:416
00:54:46.833 : :(07)00:54:46:833
01:03:51.750 : :(08)01:03:51:750
01:11:21.582 : :(09)01:11:21:583
01:21:14.916 : :(10)01:21:14:916
01:29:51.375 : :(11)01:29:51:375
01:40:00.083 : :(12)01:40:00:083
01:47:04.625 : :(13)01:47:04:625

pb.wtf



Скачать Самый лучший день через торрент http://i75.fastpic.ru/big/2016/0212/51/b0d9e77da622cba691c2913b8360a051.png Скачать, смотреть онлайн Самый лучший день бесплантно в хорошем качестве Описание: Успешному сотруднику ДПС Пете Васютину уже давно пора заводить семью, а он живет с мамой, хозяйкой придорожного кафе. И невеста ... 9 10 28
Info! Золотая раздача, скачанное не засчитывается.
Торрент: Зарегистрирован [2016-02-16 05:54] · скачан: 1 432 раз
Статус: √ проверено
Размер: 2.18 GB
Как cкачать? Как скачать Самый лучший день через торрент | UTorrent

% Раздел Тема Автор DL S | L
Наши фильмы (HD, WEB-DL 720p, 1080p) [ 9.35 GB ] Самый лучший день [2015 музыка BDRip 1080p от ExKinoRay] $-DRON-$ Скачать
1 | 0
Наши фильмы (HD, WEB-DL 720p, 1080p) [ 4.37 GB ] Самый лучший день [2015 музыка BDRip 720p] potroks Скачать
1 | 0
Наши фильмы 2015 [ 1.46 GB ] Самый лучший день [2015 музыка BDRip Оригинальный [] Twi7ter Скачать
1 | 0
Наши фильмы 2015 [ 1.47 GB ] Самый лучший день [2015 Россия музыка BDRip от keeper.52] keeper.52 Скачать
1 | 0
Наши фильмы 2015 [ 1.46 GB ] Самый лучший день [2015 музыка WEB-DLRip Оригинальный Twi7ter Скачать
1 | 0
Наши фильмы 2015 [ 2.17 GB ] Самый лучший день [2015 музыка HDRip Оригинальный ""] coc900 Скачать
1 | 0
Наши фильмы (Blu-ray, BD-Remux, HDDVD) [ 19.72 GB ] Самый лучший день [2015 музыка Blu-ray] Russian Mafia Скачать
1 | 0

28-11-2019 20:33  

Отключить вcю реклaмy на сайте

16-02-2016 19:29 Самый лучший день Скачать торрент  

и в каком месте это зарубежный фильм?pb.wtf



17-02-2016 12:31 Самый лучший день Скачать торрент  

советую !приятный фильм!pb.wtf



21-02-2016 14:53 Самый лучший день Скачать торрент  

Присоединяюсь. Не ожидал но фильм порадовал, легкий приятный для души.pb.wtf



    Дорогой пользователь! Огромная просьба, поблагодарите релизера, оцените раздачу и оставьте свои комментарий, если Вы скачали Самый лучший день через торрент бесплатно!
    Комментировать посты могут только пользователи прошедшие не сложную регистрацию
    Показать сообщения:    

    Самый лучший день через торрент
    Скачать бесплатно Самый лучший день
    Самый лучший день скачать торрент
    Самый лучший день смотреть онлайн
    Cкачать фильм Самый лучший день бесплатно
    Самый лучший день скачать торрент в хорошем качестве
    Самый лучший день смотреть онлайн бесплатно в хорошем качестве


    Вы не можете начинать темы
    Вы не можете отвечать на сообщения
    Вы не можете редактировать свои сообщения
    Вы не можете удалять свои сообщения
    Вы не можете голосовать в опросах
    Вы не можете прикреплять файлы к сообщениям
    Вы можете скачивать файлы