новый адрес
Ссылка на приватное зеркало всего за 1$. Внимание количество ограничено!!!

iTunes

1+1

iTunes

мы

WEB-DL

1

iTunes

Чернобыль

iTunes

Ральф против интернета

Лицензия

ПШазам

Лицензия

Оно 2

Лицензия

30
pack

Вам бонус

ВАЖНО

!!Акция!!

Alien_RageХит недели

RePack

Resident Evil 21

ИГРА 18+

pack

RePack

jed

!!Акция!!

Alien_Rage

RePack

fifa19

RePack

Assassins Creed: Odyssey

RePack

NEED FOR SPEED™ PAYBACK

3 сезон

9 сезон

Бесстыжие 9 сезон

Все сериалы

все сериалы на PB.wtf

RePack

FAR CRY 5
Ребята, катастрофически не хватает 1900р. для оплаты серверов за Октябрь (всвязи с блокировками трафик упал в 3 раза), 1-2р., выручайте.
  

Чук и Гек (Иван Лукинский) [1953, СССР, драма, комедия, DVDRip от AVP Studio] pb.wtf

Чук и Гек через торрент pb.wtf

Размер: 745 MB | Добавлен: 3 года 9 мес. назад | Торрент скачан:34 раза
Скачать  

16-02-2016 09:00 Чук и Гек Скачать торрент  

Чук и Гек
Страна: СССР
Производство: к/с им. М.Горького

Жанр: драма, комедия
Год выпуска: 1953
Продолжительность: 00:45:37

Перевод: Не требуется
Cубтитры: нет
Оригинальная аудиодорожка: русский

Режиссер: Иван Лукинский

В ролях:
Юрий Чучунов, Андрей Чиликин, Вера Васильева, Дмитрий Павлов, Николай Комиссаров, Михаил Трояновский...
Полный список актёров

Описание:
По одноименному рассказу Аркадия Гайдара.
Трогательная история о том, как юные москвичи - семилетний Чук и шестилетний Гек - поехали с мамой к папе, который находился в далекой геологической экспедиции, и как они боролись с жестокой зимой и всевозможными трудностями, потому что их не встретил отправившийся на выполнение срочного задания папа, но послал телеграмму, которую дети выбросили в окошко и не дали прочитать маме...

Источник: DVD5 R5
Качество видео: DVDRip
Формат видео: AVI

Видео: 672x496 (4:3), 25 fps, XviD ~ 2082 kbps avg, 0.250 bit/pixel
Аудио: 48 kHz, Dolby Digital AC3 2.0, 192 kbps

Раздача от:
Общее
Полное имя : Chuk.i.Gek.1953..DVDRip_[New-team]_by_AVP_Studio.avi
Формат : AVI
Формат/Информация : Audio Video Interleave
Размер файла : 745 Мбайт
Продолжительность : 45 м.
Общий поток : 2284 Кбит/сек
Программа кодирования : VirtualDubMod 1.5.10.3 | www.virtualdub-fr.org || (build 2550/release)
Библиотека кодирования : VirtualDubMod build 2550/release

Видео
Идентификатор : 0
Формат : MPEG-4 Visual
Профиль формата : Advanced Simple@L5
Параметр BVOP формата : 1
Параметр QPel формата : Нет
Параметр GMC формата : Без точки перехода
Параметр матрицы формата : Выборочная
Идентификатор кодека : XVID
Идентификатор кодека/Подсказка : XviD
Продолжительность : 45 м.
Битрейт : 2082 Кбит/сек
Ширина : 672 пикселя
Высота : 496 пикселей
Соотношение сторон : 4:3
Частота кадров : 25,000 кадров/сек
Цветовое пространство : YUV
Субдискретизация насыщенности : 4:2:0
Битовая глубина : 8 бит
Тип развёртки : Прогрессивная
Метод сжатия : С потерями
Бит/(Пиксели*Кадры) : 0.250
Размер потока : 679 Мбайт (91%)
Библиотека кодирования : XviD 1.2.1 (UTC 2008-12-04)

Аудио
Идентификатор : 1
Формат : AC-3
Формат/Информация : Audio Coding 3
Расширение режима : CM (complete main)
Параметр Endianness формата : Big
Идентификатор кодека : 2000
Продолжительность : 45 м.
Вид битрейта : Постоянный
Битрейт : 192 Кбит/сек
Каналы : 2 канала
Расположение каналов : Front: L R
Частота : 48,0 КГц
Частота кадров : 31,250 кадров/сек (1536 spf)
Метод сжатия : С потерями
Размер потока : 62,6 Мбайт (8%)
Выравнивание : Разделение по промежуткам
Продолжительность промежутка : 40 мс. (1,00 видеокадр)
Время предзагрузки промежутка : 500 мс
pb.wtf



Скачать Чук и Гек через торрент http://s020.radikal.ru/i713/1602/ef/c1516b8a862a.png Скачать фильм Чук и Гек через торрент бесплантно в хорошем качестве Описание:По одноименному рассказу Аркадия Гайдара.Трогательная история о том, как юные москвичи - семилетний Чук и шестилетний Гек - ... 10 10 2
Info! Золотая раздача, скачанное не засчитывается.
Торрент: Зарегистрирован [2016-02-16 09:00] · скачан: 34 раз
Статус: √ проверено
Размер: 745 MB
Как cкачать? Как скачать Чук и Гек через торрент | qTorrent

% Раздел Тема Автор DL S | L
Кино СССР [ 744 MB ] Чук и Гек [1953 СССР DVDRip-AVC от AVP Studio] AVP Studio Скачать
1 | 0

28-11-2019 20:33  

Отключить всю рекламу на сайте

    Дорогой пользователь! Огромная просьба, поблагодарите релизера, оцените раздачу и оставьте свои комментарий, если Вы скачали Чук и Гек через торрент бесплатно! Внесите свою лепту в развитие PiratBit!
    Комментировать посты могут только пользователи прошедшие не сложную регистрацию
    Показать сообщения:    

    Чук и Гек через торрент
    Скачать бесплатно Чук и Гек
    Чук и Гек скачать торрент
    Чук и Гек смотреть онлайн
    Cкачать фильм Чук и Гек бесплатно
    Чук и Гек скачать торрент в хорошем качестве
    Чук и Гек смотреть онлайн бесплатно в хорошем качестве


    Вы не можете начинать темы
    Вы не можете отвечать на сообщения
    Вы не можете редактировать свои сообщения
    Вы не можете удалять свои сообщения
    Вы не можете голосовать в опросах
    Вы не можете прикреплять файлы к сообщениям
    Вы можете скачивать файлы