Ссылка на приватное зеркало нашего сайта всего за 1$. Внимание количество ограничено!!!

2 сезон

iTunes

1 сезон

1

2 сезон

2 сезон

iTunes

1 сезон

RePack

30

Ultimate

ВАЖНО

ИГРА 18+

pack

RePack

MK11
pack

Забери бонус

RePack

jed

!!Акция!!

Alien_Rage

RePack

fifa19

RePack

Assassins Creed: Odyssey

RePack

NEED FOR SPEED™ PAYBACK

4 сезон

9 сезон

Бесстыжие 9 сезон

Все сериалы

все сериалы на PB.wtf

RePack

FAR CRY 5
  

(Psychedelic Rock) The Doors - The Doors - 1988, FLAC (image+.cue), lossless pb.wtf

через торрент pb.wtf

Размер: 295 MB | Добавлен: 10 лет назад | Торрент скачан:1 раз
Скачать  

03-08-2010 03:59 Скачать торрент  

The Doors - The Doors

Производитель диска: USA
Жанр: Psychedelic Rock
Год выпуска диска: 1988
Формат: FLAC (image + .cue)
Битрейт аудио: lossless
Продолжительность: 44:28
Лейбл: Elektra
Номер каталога: 74007-2

Трэклист:
01. Break on Through (To the Other Side) (2:29)
02. Soul Kitchen (3:35)
03. The Crystal Ship (2:35)
04. Twentieth Century Fox (2:34)
05. Alabama Song (Whisky Bar) (3:20)
06. Light My Fire (7:08)
07. Back Door Man (3:34)
08. I Looked at You (2:22)
09. End of the Night (2:53)
10. Take it as it Comes (2:17)
11. The End (11:42)

Exact Audio Copy V0.99 prebeta 5 from 4. May 2009

Отчёт EAC об извлечении, выполненном 4. апреля 2010, 19:34

Doors / The Doors

Дисковод: Optiarc DVD RW AD-7200S Adapter: 2 ID: 0

Режим чтения : Достоверность
Использование точного потока : Да
Отключение кэша аудио : Да
Использование указателей C2 : Нет

Коррекция смещения при чтении : 48
Способность читать области Lead-in и Lead-out : Нет
Заполнение пропущенных сэмплов тишиной : Да
Удаление блоков с тишиной в начале и конце : Нет
При вычислениях CRC использовались нулевые сэмплы : Да
Интерфейс : Установленный внешний ASPI-интерфейс

Выходной формат : Внутренние WAV-операции
Формат сэмплов : 44.100 Гц; 16 бит; стерео

TOC извлечённого CD

Трек | Старт | Длительность | Начальный сектор | Конечный сектор
---------------------------------------------------------------------
1 | 0:00.32 | 2:29.15 | 32 | 11221
2 | 2:29.47 | 3:34.73 | 11222 | 27344
3 | 6:04.45 | 2:34.62 | 27345 | 38956
4 | 8:39.32 | 2:33.65 | 38957 | 50496
5 | 11:13.22 | 3:20.03 | 50497 | 65499
6 | 14:33.25 | 7:08.22 | 65500 | 97621
7 | 21:41.47 | 3:34.20 | 97622 | 113691
8 | 25:15.67 | 2:22.03 | 113692 | 124344
9 | 27:37.70 | 2:52.50 | 124345 | 137294
10 | 30:30.45 | 2:17.07 | 137295 | 147576
11 | 32:47.52 | 11:41.43 | 147577 | 200194

Характеристики диапазона извлечения и сообщения об ошибках

Выбранный диапазон

Имя файла E:\МОИ РАЗДАЧИ\The Doors - The Doors 1988\Doors - The Doors.wav

Пиковый уровень 100.0 %
Качество диапазона 100.0 %
CRC копии 1B7EBE8C
Копирование... OK

Ошибок не произошло


AccurateRip: сводка

Трек 1 точное извлечение (доверие 75) [E26F8448]
Трек 2 точное извлечение (доверие 75) [8651060E]
Трек 3 точное извлечение (доверие 74) [74FA225F]
Трек 4 точное извлечение (доверие 74) [ED18D745]
Трек 5 точное извлечение (доверие 75) [646AB9D3]
Трек 6 точное извлечение (доверие 76) [6020E63C]
Трек 7 точное извлечение (доверие 78) [3DDF3E74]
Трек 8 точное извлечение (доверие 77) [4F2D7418]
Трек 9 точное извлечение (доверие 75) [AC5D17A9]
Трек 10 точное извлечение (доверие 76) [B888CF35]
Трек 11 точное извлечение (доверие 73) [56C10F6B]

Все треки извлечены точно

Конец отчёта
REM GENRE Rock
REM DATE 1967
REM DISCID 970A6D0B
REM COMMENT "ExactAudioCopy v0.99pb5"
PERFORMER "Doors"
TITLE "The Doors"
FILE "Doors - The Doors.wav" WAVE
TRACK 01 AUDIO
TITLE "Break on Through (To the Other Side)"
PERFORMER "Doors"
INDEX 00 00:00:00
INDEX 01 00:00:32
TRACK 02 AUDIO
TITLE "Soul Kitchen"
PERFORMER "Doors"
INDEX 00 02:26:72
INDEX 01 02:29:47
TRACK 03 AUDIO
TITLE "The Crystal Ship"
PERFORMER "Doors"
INDEX 00 06:02:42
INDEX 01 06:04:45
TRACK 04 AUDIO
TITLE "Twentieth Century Fox"
PERFORMER "Doors"
INDEX 00 08:36:39
INDEX 01 08:39:32
TRACK 05 AUDIO
TITLE "Alabama Song (Whisky Bar)"
PERFORMER "Doors"
INDEX 00 11:10:29
INDEX 01 11:13:22
TRACK 06 AUDIO
TITLE "Light My Fire"
PERFORMER "Doors"
INDEX 00 14:30:37
INDEX 01 14:33:25
TRACK 07 AUDIO
TITLE "Back Door Man"
PERFORMER "Doors"
INDEX 00 21:39:37
INDEX 01 21:41:47
TRACK 08 AUDIO
TITLE "I Looked at You"
PERFORMER "Doors"
INDEX 00 25:13:59
INDEX 01 25:15:67
TRACK 09 AUDIO
TITLE "End of the Night"
PERFORMER "Doors"
INDEX 00 27:36:32
INDEX 01 27:37:70
TRACK 10 AUDIO
TITLE "Take it as it Comes"
PERFORMER "Doors"
INDEX 00 30:28:12
INDEX 01 30:30:45
TRACK 11 AUDIO
TITLE "The End"
PERFORMER "Doors"
INDEX 00 32:45:29
INDEX 01 32:47:52
pb.wtf



Скачать через торрент http://i6.fastpic.ru/big/2010/0404/9b/2594d567f6debf9fbb141793c7027b9b.jpg Скачать фильм через торрент бесплантно в хорошем качестве Трэклист: Break on Through (To the Other Side) (2:29) Soul Kitchen (3:35) The Crystal Ship (2:35) Twentieth Century Fox ... 10 10 1
Info! Золотая раздача, скачанное не засчитывается.
Торрент: Зарегистрирован [2010-08-03 03:59] · скачан: 1 раз
Статус: √ проверено
Размер: 295 MB
Как cкачать? Как скачать через торрент | qTorrent

% Раздел Тема Автор DL S | L
Classic Rock & Hard Rock (lossless) [ 2.68 GB ] EVANESCENCE Дискография - 1998-2007 FLAC lossless ser_1985 Скачать
1 | 0
Eurodance, Technopop, Disco (lossless) [ 1.86 GB ] Dr. Alban Студийные альбомы - 5CD [FLAC lossless] tauras Скачать
1 | 0
Action FPS (1st Person) [ 8.89 GB ] Star Wars: The Force Unleashed - Ultimate Sith Edition [Lossless Repack RU/EN] от Druid =Чувак= Скачать
1 | 0
Архив (Alternative, Punk, Independent) [ 1.74 GB ] Breaking Benjamin - Дискография - 2001-2009 FLAC lossless King_IS_Back Скачать
1 | 0
Гоночные симуляторы [ 3.18 GB ] Дальнобойщик​и 3: Золотое Издание [Lossless Repack RU] от R.G. Catalyst roman3310i Скачать
1 | 0
Архив (Многоканальная музыка и собственные оцифровки) [ 405 MB ] Black Sabbath -Heaven & hell - 1980 DTS lossless staryirocker Скачать
1 | 0
RTS (стратегии в реальном времени) [ 4.21 GB ] Command & Conquer 4: Tiberian Twilight [Lossless RePackRUEA] Alex_Zeyn Скачать
2 | 0

28-11-2019 20:33  

Отключить всю рекламу на сайте

    Дорогой пользователь! Огромная просьба, поблагодарите релизера, оцените раздачу и оставьте свои комментарий, если Вы скачали через торрент бесплатно! Внесите свою лепту в развитие PiratBit!
    Комментировать посты могут только пользователи прошедшие не сложную регистрацию
    Показать сообщения:    

    через торрент
    Скачать бесплатно
    скачать торрент
    смотреть онлайн
    Cкачать фильм бесплатно
    скачать торрент в хорошем качестве
    смотреть онлайн бесплатно в хорошем качестве


    Вы не можете начинать темы
    Вы не можете отвечать на сообщения
    Вы не можете редактировать свои сообщения
    Вы не можете удалять свои сообщения
    Вы не можете голосовать в опросах
    Вы не можете прикреплять файлы к сообщениям
    Вы можете скачивать файлы