Ссылка на приватное зеркало нашего сайта всего за 1$. Внимание количество ограничено!!!

2 сезон

iTunes

1 сезон

1

2 сезон

2 сезон

iTunes

1 сезон

RePack

30

Ultimate

ВАЖНО

ИГРА 18+

pack

RePack

MK11
pack

Забери бонус

RePack

jed

!!Акция!!

Alien_Rage

RePack

fifa19

RePack

Assassins Creed: Odyssey

RePack

NEED FOR SPEED™ PAYBACK

4 сезон

9 сезон

Бесстыжие 9 сезон

Все сериалы

все сериалы на PB.wtf

RePack

FAR CRY 5
  

Макбет / Macbeth (Джастин Курзель) [2015 г., драма, военный, HDRip, Дубляж "iTunes"] pb.wtf

Макбет через торрент pb.wtf

Размер: 2.18 GB | Добавлен: 4 года 9 мес. назад | Торрент скачан:262 раза
Скачать  

16-02-2016 18:25 Макбет Скачать торрент  

Макбет / Macbeth
Год выпуска: 2015
Страна: Великобритания, США, Франция / See-Saw Films, DMC Film, Anton Capital Entertainment (ACE)
Жанр: драма, военный
Продолжительность: 01:52:52
Перевод: Дубляж (iTunes)

Режиссер: Джастин Курзель

IMDB 7.00 (21 261)


В ролях: Майкл Фассбендер, Марион Котийяр, Пэдди Консидайн, Шон Харрис, Джек Рейнор, Элизабет Дебики, Дэвид Тьюлис, Росс Андерсон, Дэвид Хейман, Морис Роевз

Описание: Холодные поля Шотландии, военный лагерь, всегда готовый переместиться в другое место. Макбет всегда на войне, его жена, недавно потерявшая ребенка, боится потерять еще и мужа. Чтобы удержать его рядом, она начинает свой проект по устранению конкурентов в борьбе за королевскую корону.

Качество: HDRip
Формат: AVI
Видео кодек: XviD
Аудио кодек: AC3
Видео: MPEG4, XviD, 720x304 (2.35:1), 24.000 fps, 2 366 Kbps (0.450 bit/pixel)
Аудио: AC-3, 48.0 KHz, 6 ch, 384 Kbps, CBR
скриншот   скриншот   скриншот   скриншот   скриншот   скриншот   скриншот   скриншот   скриншот   скриншот  

Общее
Полное имя : F:\кино\Макбет.2015.D.HDRip..avi
Формат : AVI
Формат/Информация : Audio Video Interleave
Профиль формата : OpenDML
Размер файла : 2,18 Гбайт
Продолжительность : 1 ч. 52 м.
Общий поток : 2762 Кбит/сек
Программа кодирования : VirtualDubMod 1.5.10.3 | www.virtualdub-fr.org || (build 2550/release)
Библиотека кодирования : VirtualDubMod build 2550/release

Видео
Идентификатор : 0
Формат : MPEG-4 Visual
Профиль формата : Advanced Simple@L5
Параметр BVOP формата : 2
Параметр QPel формата : Нет
Параметр GMC формата : Без точки перехода
Параметр матрицы формата : Default (H.263)
Идентификатор кодека : XVID
Идентификатор кодека/Подсказка : XviD
Продолжительность : 1 ч. 52 м.
Битрейт : 2366 Кбит/сек
Ширина : 720 пикселей
Высота : 304 пикселя
Соотношение сторон : 2,35:1
Частота кадров : 24,000 кадра/сек
Цветовое пространство : YUV
Субдискретизация насыщенности : 4:2:0
Битовая глубина : 8 бит
Тип развёртки : Прогрессивная
Метод сжатия : С потерями
Бит/(Пиксели*Кадры) : 0.450
Размер потока : 1,87 Гбайт (86%)
Библиотека кодирования : XviD 1.2.1 (UTC 2008-12-04)

Аудио
Идентификатор : 1
Формат : AC-3
Формат/Информация : Audio Coding 3
Расширение режима : CM (complete main)
Параметр Endianness формата : Big
Идентификатор кодека : 2000
Продолжительность : 1 ч. 52 м.
Вид битрейта : Постоянный
Битрейт : 384 Кбит/сек
Каналы : 6 каналов
Расположение каналов : Front: L C R, Side: L R, LFE
Частота : 48,0 КГц
Частота кадров : 31,250 кадров/сек (1536 spf)
Метод сжатия : С потерями
Размер потока : 310 Мбайт (14%)
Выравнивание : Разделение по промежуткам
Продолжительность промежутка : 42 мс. (1,00 видеокадр)
Время предзагрузки промежутка : 500 мс.

pb.wtf



Скачать Макбет через торрент http://pic.kartinco.top/images/11/qbeas.jpg Скачать фильм Макбет через торрент бесплантно в хорошем качестве Описание: Холодные поля Шотландии, военный лагерь, всегда готовый переместиться в другое место. Макбет всегда на войне, его жена, недавно ... 9.8 10 11
Info! Золотая раздача, скачанное не засчитывается.
Торрент: Зарегистрирован [2016-02-16 18:25] · скачан: 262 раз
Статус: √ проверено
Размер: 2.18 GB
Как cкачать? Как скачать Макбет через торрент | qTorrent

% Раздел Тема Автор DL S | L
Фильмы 2016 [DVDrip, WEB-DLRip, HDrip] (DUB, MVO) [ 1.39 GB ] Леди Макбет / Lady Macbeth [2016 экранизация BDRip-AVC] MVO - ExKinoRay Enigma2010 Скачать
1 | 0
Фильмы [HD 720p, 1080p] (Хороший звук DUB, MVO) [ 8.64 GB ] Леди Макбет / Lady Macbeth [2016 BDRip 1080p] MVO bober100 Скачать
1 | 0
Фильмы 2015 [DVDrip, WEB-DLRip, HDrip] [ 2.18 GB ] Макбет / Macbeth [2015 военный BDRip-AVC] [] potroks Скачать
1 | 0
Фильмы 2015 [DVDrip, WEB-DLRip, HDrip] [ 1.46 GB ] Макбет / Macbeth [2015 военный BDRip-AVC] [] potroks Скачать
1 | 0
Фильмы 2015 [DVDrip, WEB-DLRip, HDrip] [ 1.46 GB ] Макбет / Macbeth [2015 военный BDRip] DUB Twi7ter Скачать
2 | 0
Фильмы (DVD фильмы) [ 5.54 GB ] Макбет / Macbeth [2015 военный DVD9] DUB R5 voovaz Скачать
1 | 0
Фильмы [HD 720p, 1080p] (Хороший звук DUB, MVO) [ 11.54 GB ] Макбет / Macbeth [2015 военный BDRip 1080p / ] Ворон Скачать
1 | 0

28-11-2019 20:33  

Отключить всю рекламу на сайте

21-02-2016 15:30 Макбет Скачать торрент  

Отличный фильм!Говорят стихами,но ведь это же Уильям Шекспир pb.wtf



    Дорогой пользователь! Огромная просьба, поблагодарите релизера, оцените раздачу и оставьте свои комментарий, если Вы скачали Макбет через торрент бесплатно! Внесите свою лепту в развитие PiratBit!
    Комментировать посты могут только пользователи прошедшие не сложную регистрацию
    Показать сообщения:    

    Макбет через торрент
    Скачать бесплатно Макбет
    Макбет скачать торрент
    Макбет смотреть онлайн
    Cкачать фильм Макбет бесплатно
    Макбет скачать торрент в хорошем качестве
    Макбет смотреть онлайн бесплатно в хорошем качестве


    Вы не можете начинать темы
    Вы не можете отвечать на сообщения
    Вы не можете редактировать свои сообщения
    Вы не можете удалять свои сообщения
    Вы не можете голосовать в опросах
    Вы не можете прикреплять файлы к сообщениям
    Вы можете скачивать файлы