Ссылка на приватное зеркало всего за 1$. Внимание количество ограничено!!!

iTunes

iTunes

iTunes

1

iTunes

iTunes

iTunes

iTunes

iTunes

30
pack

$ от Little Big

ВАЖНО

!!Акция!!

Alien_RageХит недели

RePack

Resident Evil 21

ИГРА 18+

pack

RePack

jed

!!Акция!!

Alien_Rage

RePack

fifa19

RePack

Assassins Creed: Odyssey

RePack

NEED FOR SPEED™ PAYBACK

4 сезон

9 сезон

Бесстыжие 9 сезон

Все сериалы

все сериалы на PB.wtf

RePack

FAR CRY 5
  

Влюбить и обезвредить / Любовь в розыске (Анарио Мамедов) [2015, Комедия, WEB-DLRip, [Русский] pb.wtf

Влюбить и обезвредить через торрент pb.wtf

Раздают: 16 [ 0 KB/s ]
Размер: 1.45 GB | Добавлен: 4 года 3 мес. назад | Торрент скачан:1269 раз
Скачать  

17-02-2016 09:46 Влюбить и обезвредить Скачать торрент  

Влюбить и обезвредить / Любовь в розыске
Год выпуска » 2015
Страна » Россия, Маурис Филм
Жанр » Комедия
Продолжительность » 01:49:19
Перевод » Не требуется [Русский]
Субтитры » Нет

В ролях
» Анастасия Панина, Роман Полянский, Максим Битюков, Анна Пескова, Вадим Андреев, Андрей Бутин, Юлия Жигалина, Вячеслав Хархота, Юлия Подозерова

Режиссёр
» Анарио Мамедов
ОПИСАНИЕ:
» Отчаявшись устроить личное счастье сотрудник полиции Анна в шутку составляет фоторобот мужчины своей мечты. По ошибке изображение попадает в базу розыска преступников и теперь все уверены, что именно так выглядит загадочный вор, которого боятся во всех ювелирных города. Безобидный программист Саша, поразительно похожий на фантазию Анны, приходит в магазин за обручальными кольцами для своей свадьбы и тут же оказывается в наручниках. В полиции быстро выясняют правду, но решают до поры до времени скрыть ее от Саши. Анне поручают присматривать за парнем, чтобы «на живца» поймать не только настоящего вора, но и опасных бандитов, гоняющихся за ним. Вот только хладнокровно следовать профессиональному долгу, сутками находясь рядом с самым желанным мужчиной, оказывается совсем непросто.
• Качество » WEB-DLRip
• Формат » AVI
• Видео кодек » XviD
• Аудио кодек » AC3
• Видео » MPEG-4, 1704 Кбит/с, 720x384, 25 кадр/с
• Аудио » Русский (AC-3 / 2 ch / 192 kbps /16 bit )


Общее
Полное имя : C:\Users\DRON & LeXuZ\Desktop\Влюбить и обезвредить.2015.WEBDLRip.MegaPeer.avi
Формат : AVI
Формат/Информация : Audio Video Interleave
Размер файла : 1,45 Гбайт
Продолжительность : 1 ч. 49 м.
Общий поток : 1904 Кбит/сек

Видео
Идентификатор : 0
Формат : MPEG-4 Visual
Профиль формата : Advanced Simple@L5
Параметр BVOP формата : 1
Параметр QPel формата : Нет
Параметр GMC формата : Без точки перехода
Параметр матрицы формата : Выборочная
Идентификатор кодека : XVID
Идентификатор кодека/Подсказка : XviD
Продолжительность : 1 ч. 49 м.
Битрейт : 1704 Кбит/сек
Ширина : 720 пикселей
Высота : 384 пикселя
Соотношение сторон : 1,85:1
Частота кадров : 25,000 кадров/сек
Цветовое пространство : YUV
Субдискретизация насыщенности : 4:2:0
Битовая глубина : 8 бит
Тип развёртки : Прогрессивная
Метод сжатия : С потерями
Бит/(Пиксели*Кадры) : 0.246
Размер потока : 1,30 Гбайт (89%)
Библиотека кодирования : XviD 67

Аудио
Идентификатор : 1
Формат : AC-3
Формат/Информация : Audio Coding 3
Расширение режима : CM (complete main)
Параметр Endianness формата : Big
Идентификатор кодека : 2000
Продолжительность : 1 ч. 49 м.
Вид битрейта : Постоянный
Битрейт : 192 Кбит/сек
Каналы : 2 канала
Расположение каналов : Front: L R
Частота : 48,0 КГц
Битовая глубина : 16 бит
Метод сжатия : С потерями
Размер потока : 150 Мбайт (10%)
Выравнивание : Соединение по промежуткам
Продолжительность промежутка : 64 мс. (1,60 видеокадра)
Время предзагрузки промежутка : 192 мс.
Заголовок : FLL_N_LV_NTRLZ_2015
скриншот   скриншот   скриншот  
pb.wtf



Скачать Влюбить и обезвредить через торрент http://pic1.kartinco.top/images/10/yl2ao.jpg Скачать фильм Влюбить и обезвредить через торрент бесплантно в хорошем качестве ОПИСАНИЕ: » Отчаявшись устроить личное счастье сотрудник полиции Анна в шутку составляет фоторобот мужчины своей мечты. По ошибке ... 8.9 10 27
Торрент: Зарегистрирован [2016-02-17 09:46] · скачан: 1 269 раз
Статус: T временная
Размер: 1.45 GB
Как cкачать? Как скачать Влюбить и обезвредить через торрент | qTorrent

% Раздел Тема Автор DL S | L
T Наши новые фильмы 2015 [ 2.17 GB ] Влюбить и обезвредить / Любовь в розыске [2015 WEB-DLRip [Русский] $-DRON-$ Скачать
1 | 0
T Наши фильмы (HD, WEB-DL 720p, 1080p) [ 3.93 GB ] Влюбить и обезвредить / Любовь в розыске [2015 WEB-DL 1080p [Русский] $-DRON-$ Скачать
1 | 0

28-11-2019 20:33  

Отключить всю рекламу на сайте

    Дорогой пользователь! Огромная просьба, поблагодарите релизера, оцените раздачу и оставьте свои комментарий, если Вы скачали Влюбить и обезвредить через торрент бесплатно! Внесите свою лепту в развитие PiratBit!
    Комментировать посты могут только пользователи прошедшие не сложную регистрацию
    Показать сообщения:    

    Влюбить и обезвредить через торрент
    Скачать бесплатно Влюбить и обезвредить
    Влюбить и обезвредить скачать торрент
    Влюбить и обезвредить смотреть онлайн
    Cкачать фильм Влюбить и обезвредить бесплатно
    Влюбить и обезвредить скачать торрент в хорошем качестве
    Влюбить и обезвредить смотреть онлайн бесплатно в хорошем качестве


    Вы не можете начинать темы
    Вы не можете отвечать на сообщения
    Вы не можете редактировать свои сообщения
    Вы не можете удалять свои сообщения
    Вы не можете голосовать в опросах
    Вы не можете прикреплять файлы к сообщениям
    Вы можете скачивать файлы