Ссылка на приватное зеркало нашего сайта всего за 1$. Внимание количество ограничено!!!

2 сезон

iTunes

1 сезон

1

iTunes

iTunes

iTunes

1 сезон

RePack

30

ИГРА 18+

pack

ВАЖНО

!!Акция!!

Alien_RageХит недели

RePack

MK11
pack

Забери бонус

RePack

jed

!!Акция!!

Alien_Rage

RePack

fifa19

RePack

Assassins Creed: Odyssey

RePack

NEED FOR SPEED™ PAYBACK

4 сезон

9 сезон

Бесстыжие 9 сезон

Все сериалы

все сериалы на PB.wtf

RePack

FAR CRY 5
  

Новая жизнь/ Серии: 1-10 из 10 (Владимир Зайкин) [2013, мелодрама, SATRip-AVC] pb.wtf

Новая жизнь через торрент pb.wtf

Размер: 6.3 GB | Добавлен: 4 года 8 мес. назад | Торрент скачан:52 раза
Скачать  

17-02-2016 10:51 Новая жизнь Скачать торрент  

Новая жизнь




Год выпуска: 2013
Производство: Россия, Кинокомпания "Все хорошо"
Жанр: мелодрама
Продолжительность: 00:51:00
Субтитры: нет




Режиссёр:Константин Худяков



В ролях: Алексей Бардуков, Марина Ворожищева, Сергей Марин, Михаил Гаврилов (II), Ирина Горбачева, Сергей Пускепалис, Алёна Бабенко, Анна Каменкова, Юрий Беляев, Виктор Сухоруков, Мария Звонарёва, Сергей Беляев, Виталий Махов, Екатерина Никитина, Эрнст Романов, Анна Гуляренко, Анатолий Узденский, Дмитрий Опаричев, Владислава Артюха, Дарья Хорошилова, Игорь Кулачко, Иван Лырчиков, Данила Шевченко, Александр Пигалев, Софья Дударчик, Альбина Маркина





Описание:Действия фильма разворачиваются в Москве и провинциальном городе. Наши Дни. Сюжет фильма повествует о проблемах отцов и детей, о сложностях становления личности, о жизненных препятствиях, которые главным героям приходится преодолевать на своем пути, о любви и о том, какую цену приходится платить за свои ошибки...









Качество: SATRip-AVC
Формат: MKV
Видео кодек: H.264
Аудио кодек: AC3
Видео: MPEG-4 AVC, 720х400,25fps,~1600 Кбит/сек,Bits/Pixel 0.222
Аудио: AC3, 48 kHz, ~192 Kbps, 2 канала



Общее
Уникальный идентификатор : 250196221093980401396378969126984119957 (0xBC3A0A1747FB73CD9F01AF90460A7695)
Полное имя : F:\Новая жизнь\Новая жизнь_01 серия rip by_Aleksan55.mkv
Формат : Matroska
Версия формата : Version 2
Размер файла : 648 Мбайт
Продолжительность : 50 м.
Общий поток : 1793 Кбит/сек
Дата кодирования : UTC 2016-02-16 05:12:52
Программа кодирования : mkvmerge v7.8.0 ('River Man') 32bit built on Apr 3 2015 12:11:22
Библиотека кодирования : libebml v1.3.1 + libmatroska v1.4.2

Видео
Идентификатор : 1
Формат : AVC
Формат/Информация : Advanced Video Codec
Профиль формата : High@L4.1
Параметр CABAC формата : Да
Параметр ReFrames формата : 9 кадров
Идентификатор кодека : V_MPEG4/ISO/AVC
Продолжительность : 50 м.
Битрейт : 1600 Кбит/сек
Ширина : 720 пикселей
Высота : 400 пикселей
Соотношение сторон : 1,85:1
Режим частоты кадров : Постоянный
Частота кадров : 25,000 кадров/сек
Цветовое пространство : YUV
Субдискретизация насыщенности : 4:2:0
Битовая глубина : 8 бит
Тип развёртки : Прогрессивная
Бит/(Пиксели*Кадры) : 0.222
Размер потока : 565 Мбайт (87%)
Библиотека кодирования : x264 core 146 r2538 121396c
Настройки программы : cabac=1 / ref=9 / deblock=1:-3:-3 / analyse=0x3:0x113 / me=umh / subme=9 / psy=1 / psy_rd=1.00:0.15 / mixed_ref=0 / me_range=32 / chroma_me=1 / trellis=2 / 8x8dct=1 / cqm=0 / deadzone=21,11 / fast_pskip=1 / chroma_qp_offset=-3 / threads=2 / lookahead_threads=4 / sliced_threads=0 / nr=0 / decimate=1 / interlaced=0 / bluray_compat=0 / constrained_intra=0 / bframes=9 / b_pyramid=2 / b_adapt=2 / b_bias=0 / direct=3 / weightb=1 / open_gop=0 / weightp=2 / keyint=250 / keyint_min=25 / scenecut=40 / intra_refresh=0 / rc_lookahead=40 / rc=2pass / mbtree=1 / bitrate=1600 / ratetol=1.0 / qcomp=0.60 / qpmin=0 / qpmax=69 / qpstep=4 / cplxblur=20.0 / qblur=0.5 / ip_ratio=1.40 / aq=1:1.00
Default : Да
Forced : Нет
Цветовой диапазон : Limited
Основные цвета : BT.601 PAL
Характеристики трансфера : BT.470 System B, BT.470 System G
Коэффициенты матрицы : BT.601

Аудио
Идентификатор : 2
Формат : AC-3
Формат/Информация : Audio Coding 3
Расширение режима : CM (complete main)
Параметр Endianness формата : Big
Идентификатор кодека : A_AC3
Продолжительность : 50 м.
Вид битрейта : Постоянный
Битрейт : 192 Кбит/сек
Каналы : 2 канала
Расположение каналов : Front: L R
Частота : 48,0 КГц
Метод сжатия : С потерями
Размер потока : 69,3 Мбайт (11%)
Default : Да
Forced : Нет
Внимание! Раздача ведётся путём добавления новых серий; при каждом добавлении создаётся новый торрент.
Чтобы начать докачку новой серии, пользователям необходимо сделать следующее:
1. Остановить скачивание;
2. Удалить старый торрент у себя из клиента (старые серии удалять не надо);
3. Скачать новый торрент и запустить его у себя в клиенте вместо старого, при этом указать клиенту путь в старую папку куда и должно происходить скачивание новых серий. Ваш клиент при этом должен произвести хеширование (проверку) старой папки и будет докачивать только те серии, которых у вас ещё нет. Старые серии при этом не удаляются, а продолжают раздаваться! Eсли вы уже удалили старые серии, то предотвратить повторную закачку старых серий можно, отжав галочку в соответствующих местах при запуске нового торрента.


Рекламы нет.Добавлены 9-10 серия.pb.wtf



Скачать Новая жизнь через торрент http://s017.radikal.ru/i439/1602/47/61be2c1092bf.jpg Скачать фильм Новая жизньчерез торрент бесплантно в хорошем качестве Описание:Действия фильма разворачиваются в Москве и провинциальном городе. Наши Дни. Сюжет фильма повествует о проблемах отцов и детей, о ... 8.5 10 6
Info! Золотая раздача, скачанное не засчитывается.
Торрент: Зарегистрирован [2016-02-19 22:36] · скачан: 52 раз
Статус: √ проверено
Размер: 6.3 GB
Как cкачать? Как скачать Новая жизнь через торрент | qTorrent

28-11-2019 20:33  

Отключить всю рекламу на сайте

    Дорогой пользователь! Огромная просьба, поблагодарите релизера, оцените раздачу и оставьте свои комментарий, если Вы скачали Новая жизнь через торрент бесплатно! Внесите свою лепту в развитие PiratBit!
    Комментировать посты могут только пользователи прошедшие не сложную регистрацию
    Показать сообщения:    

    Новая жизнь через торрент
    Скачать бесплатно Новая жизнь
    Новая жизнь скачать торрент
    Новая жизнь смотреть онлайн
    Cкачать фильм Новая жизнь бесплатно
    Новая жизнь скачать торрент в хорошем качестве
    Новая жизнь смотреть онлайн бесплатно в хорошем качестве


    Вы не можете начинать темы
    Вы не можете отвечать на сообщения
    Вы не можете редактировать свои сообщения
    Вы не можете удалять свои сообщения
    Вы не можете голосовать в опросах
    Вы не можете прикреплять файлы к сообщениям
    Вы можете скачивать файлы