Ссылка на приватное зеркало нашего сайта всего за 1$. Внимание количество ограничено!!!

2 сезон

iTunes

1 сезон

1

2 сезон

2 сезон

iTunes

1 сезон

RePack

30

Ultimate

ВАЖНО

ИГРА 18+

pack

RePack

MK11
pack

Забери бонус

RePack

jed

!!Акция!!

Alien_Rage

RePack

fifa19

RePack

Assassins Creed: Odyssey

RePack

NEED FOR SPEED™ PAYBACK

4 сезон

9 сезон

Бесстыжие 9 сезон

Все сериалы

все сериалы на PB.wtf

RePack

FAR CRY 5
  

Комната / Room (Леонард Абрахамсон ) [2015, драма , WEB-DLRip, Любительский (двухголосый) [Parovoz Production] DVO pb.wtf

Комната через торрент pb.wtf

Размер: 1.37 GB | Добавлен: 4 года 9 мес. назад | Торрент скачан:80 раз
Скачать  

17-02-2016 11:29 Комната Скачать торрент  

Комната / Room

Год выпуска » 2015
Страна » Ирландия, Канада A24, Element Pictures, No Trace Camping
Жанр » драма
Продолжительность » 01:57:43
Перевод » Любительский (двухголосый закадровый) Parovoz Production
Субтитры » Нет

В ролях
» Бри Ларсон, Джейкоб Тремблэ, Шон Бриджерс, Венди Крюсон, Сэнди МакМастер, Мэтт Гордон, Аманда Бругел, Джо Пинг, Джоан Аллен, Заррин Дарнелл-Мартин

Режиссёр
» Леонард Абрахамсон
ОПИСАНИЕ:
» Девушку по имени Ма похитили, когда она была еще подростком. С тех пор бедняга живет в крохотной комнатке вместе со своим 5-летним сыном Джеком. Мальчик при этом ничего кроме этой комнаты не видел, он в ней родился и ни разу ее не покидал.
» Оскар
» Номинации 2016 Золотой глобус:
Лучший фильм, Лучшая женская роль, Лучший режиссер, Лучший адаптированный сценарий

• Качество » WEB-DLRip
• Формат » AVI
• Видео кодек » XviD
• Аудио кодек » AC3
• Видео » MPEG-4 Visual,1460 Кбит/с, 720x304,24,000 кадра/сек
• Аудио » Русский (AC-3 / 2 ch / 192 kbps /16 bit )


Общее
Полное имя : C:\Users\DRON & LeXuZ\Desktop\K0MHATA.2015.DVO.WEB-DLRip.1400MB.avi
Формат : AVI
Формат/Информация : Audio Video Interleave
Размер файла : 1,37 Гбайт
Продолжительность : 1 ч. 57 м.
Общий поток : 1662 Кбит/сек
Программа кодирования : VirtualDubMod 1.5.10.2 (build 2540/release)
Библиотека кодирования : VirtualDubMod build 2540/release

Видео
Идентификатор : 0
Формат : MPEG-4 Visual
Профиль формата : Advanced Simple@L5
Параметр BVOP формата : 2
Параметр QPel формата : Нет
Параметр GMC формата : Без точки перехода
Параметр матрицы формата : Default (MPEG)
Идентификатор кодека : XVID
Идентификатор кодека/Подсказка : XviD
Продолжительность : 1 ч. 57 м.
Битрейт : 1460 Кбит/сек
Ширина : 720 пикселей
Высота : 304 пикселя
Соотношение сторон : 2,35:1
Частота кадров : 23,976 кадра/сек
Цветовое пространство : YUV
Субдискретизация насыщенности : 4:2:0
Битовая глубина : 8 бит
Тип развёртки : Прогрессивная
Метод сжатия : С потерями
Бит/(Пиксели*Кадры) : 0.278
Размер потока : 1,20 Гбайт (88%)
Библиотека кодирования : XviD 1.2.1 (UTC 2008-12-04)

Аудио
Идентификатор : 1
Формат : AC-3
Формат/Информация : Audio Coding 3
Расширение режима : CM (complete main)
Параметр Endianness формата : Big
Идентификатор кодека : 2000
Продолжительность : 1 ч. 57 м.
Вид битрейта : Постоянный
Битрейт : 192 Кбит/сек
Каналы : 2 канала
Расположение каналов : Front: L R
Частота : 48,0 КГц
Битовая глубина : 16 бит
Метод сжатия : С потерями
Размер потока : 161 Мбайт (12%)
Выравнивание : Разделение по промежуткам
Продолжительность промежутка : 42 мс. (1,00 видеокадр)
Время предзагрузки промежутка : 500 мс.
скриншот   скриншот   скриншот   скриншот  
В релизе имеется звуковая реклама казино.pb.wtf



Скачать Комната через торрент http://pic1.kartinco.top/images/10/tkujo.jpg Скачать фильм Комната через торрент бесплантно в хорошем качестве ОПИСАНИЕ: » Девушку по имени Ма похитили, когда она была еще подростком. С тех пор бедняга живет в крохотной комнатке вместе со своим ... 4.8 10 5
Торрент: Зарегистрирован [2016-02-17 11:29] · скачан: 80 раз
Статус: T временная
Размер: 1.37 GB
Как cкачать? Как скачать Комната через торрент | qTorrent

% Раздел Тема Автор DL S | L
Зарубежные сериалы [ 9.95 GB ] Потерянная комната / The Lost Room / Сезон: 1 / Серии: 1-3 из 3 [2006 WEB-DL 1080p] DVO [Кубик в Кубе] bober100 Скачать
2 | 0
Фильмы 2015 [DVDrip, WEB-DLRip, HDrip] [ 1.46 GB ] Комната / Room [2015 BDRip] bober100 Скачать
2 | 0
Фильмы 2019-2020 [DVDrip, WEB-DLRip, HDrip] (DUB, MVO) [ 746 MB ] Комната желаний / The Room [2019 HDRip] bober100 Скачать
2 | 0
Фильмы [HD 720p, 1080p] (Хороший звук DUB, MVO) [ 3.75 GB ] Комната желаний / The Room [2019 BDRip 720p] DUB bober100 Скачать
3 | 0
Фильмы 2019-2020 [DVDrip, WEB-DLRip, HDrip] (DUB, MVO) [ 1.82 GB ] Комната желаний / The Room [2019 BDRip-AVC] - ExKinoRay Enigma2010 Скачать
5 | 0
Фильмы [HD 720p, 1080p] (Хороший звук DUB, MVO) [ 7.77 GB ] Комната желаний / The Room [2019 BDRip 1080p] DUB bober100 Скачать
3 | 0
Фильмы (Blu-ray, BD-Remux, HDDVD) [ 18.95 GB ] Комната желаний / The Room [2019 BD Remux 1080p] DUB bober100 Скачать
2 | 0


Последний раз редактировалось: $-DRON-$ (2016-02-17 11:57), всего редактировалось 2 раз(а)

28-11-2019 20:33  

Отключить всю рекламу на сайте

17-02-2016 20:36 Комната Скачать торрент  

никогда ... ни при каких обстоятельствах ... просто нет ... нельзя делать такие фильмы - это зло .
априори - ребенок должен расти счастливым .pb.wtf



17-02-2016 21:41 Комната Скачать торрент  

Doorg писал(а):

никогда ... ни при каких обстоятельствах ... просто нет ... нельзя делать такие фильмы - это зло .
априори - ребенок должен расти счастливым .

Смотреть стоит?pb.wtf



    Дорогой пользователь! Огромная просьба, поблагодарите релизера, оцените раздачу и оставьте свои комментарий, если Вы скачали Комната через торрент бесплатно! Внесите свою лепту в развитие PiratBit!
    Комментировать посты могут только пользователи прошедшие не сложную регистрацию
    Показать сообщения:    

    Комната через торрент
    Скачать бесплатно Комната
    Комната скачать торрент
    Комната смотреть онлайн
    Cкачать фильм Комната бесплатно
    Комната скачать торрент в хорошем качестве
    Комната смотреть онлайн бесплатно в хорошем качестве


    Вы не можете начинать темы
    Вы не можете отвечать на сообщения
    Вы не можете редактировать свои сообщения
    Вы не можете удалять свои сообщения
    Вы не можете голосовать в опросах
    Вы не можете прикреплять файлы к сообщениям
    Вы можете скачивать файлы