2 сезон

iTunes

1 сезон

1

iTunes

iTunes

iTunes

1 сезон

RePack

30

ИГРА 18+

pack

ВАЖНО

!!Акция!!

Alien_RageХит недели

RePack

MK11
pack

Забери бонус

RePack

jed

!!Акция!!

Alien_Rage

RePack

fifa19

RePack

Assassins Creed: Odyssey

RePack

NEED FOR SPEED™ PAYBACK

4 сезон

9 сезон

Бесстыжие 9 сезон

Все сериалы

все сериалы на PB.wtf

RePack

FAR CRY 5
  

Король говорит! / The King's Speech (Том Хупер ) [2010, драма, биография, история, BDRip 720p от _denis_100 / NNNB] DUB, AVO + Original + Sub (2xRus, 2xEng) pb.wtf

Король говорит! через торрент pb.wtf

Раздают: 1 [ 0 KB/s ]
Размер: 5.75 GB | Добавлен: 4 года 8 мес. назад | Торрент скачан:195 раз
Скачать  

17-02-2016 17:05 Король говорит! Скачать торрент  

Король говорит! / The King's Speech
«It takes leadership to confront a nation's fear. It takes friendship to conquer your own»


Год выпуска: 2010
Страна: Великобритания, США, Австралия
Жанр: драма, биография, история
Продолжительность: 01:58:28
Перевод: Дублированный, Авторский одноголосый
Субтитры: русские (Forced), русские, английские, английские (SDH)
Режиссер: Том Хупер
В ролях: Колин Фёрт , Джеффри Раш , Хелена Бонем Картер , Гай Пирс , Тимоти Сполл , Энтони Эндрюс , Майкл Гэмбон , Клэр Блум , Дерек Джекоби , Дженнифер Или , Ив Бест , Патрик Райкарт
Описание:
Сюжет ленты расскажет о герцоге, который готовится вступить в должность британского короля Георга VI, отца нынешней королевы Елизаветы II. После того, как его брат отрекается от престола, герой неохотно соглашается на трон. Измученный страшным нервным заиканием и сомнениями в своих способностях руководить страной, Георг обращается за помощью к неортодоксальному логопеду по имени Лайонел Лог.

R - Лицам до 17 лет обязательно присутствие взрослого
Качество: BDRip 720p
Контейнер (Расширение): MKV
Видео: 1280x720, 5030 Кбит/сек, 23,976 кадр/сек, 0,228 Бит/[Пиксели*Кадры]
Аудио №1: русский / AC3 / 5.1 / 48 kHz / 640 kbps / 16 bit |Дублированный|
Аудио №2: русский / AC3 / 5.1 / 48 kHz / 640 kbps / 16 bit |Авторский, Ю.Сербин|
Аудио №3: английский / AC3 / 5.1 / 48 kHz / 640 kbps / 16 bit
Навигация по главам(Чаптеры): естьАвтор рипа: Сообщество: Отдельно:
Субтитры
Авторский, Ю.Сербин - 640 kbps

Код:

Format                                   : Matroska
Format version                           : Version 2
File size                                : 5.75 GiB
Duration                                 : 1h 58mn
Overall bit rate                         : 6 952 Kbps
Movie name                               : The King's Speech.(2010).BDRip.720p.[denis100]
Encoded date                             : UTC 2016-02-17 16:22:17
Writing application                      : mkvmerge v5.8.0 ('No Sleep / Pillow') built on Sep  2 2012 15:37:04
Writing library                          : libebml v1.2.3 + libmatroska v1.3.0

Video
ID                                       : 1
Format                                   : AVC
Format/Info                              : Advanced Video Codec
Format profile                           : High@L4.1
Format settings, CABAC                   : Yes
Format settings, ReFrames                : 9 frames
Codec ID                                 : V_MPEG4/ISO/AVC
Duration                                 : 1h 58mn
Bit rate                                 : 5 030 Kbps
Width                                    : 1 280 pixels
Height                                   : 720 pixels
Display aspect ratio                     : 16:9
Frame rate                               : 23.976 fps
Color space                              : YUV
Chroma subsampling                       : 4:2:0
Bit depth                                : 8 bits
Scan type                                : Progressive
Bits/(Pixel*Frame)                       : 0.228
Stream size                              : 4.05 GiB (70%)
Title                                    : The King's Speech.(2010).BDRip.720p.[denis100]
Writing library                          : x264 core 148 r2665 a01e339
Encoding settings                        : cabac=1 / ref=9 / deblock=1:-3:-3 / analyse=0x3:0x133 / me=umh / subme=11 / psy=1 / psy_rd=1.00:0.05 / mixed_ref=1 / me_range=48 / chroma_me=1 / trellis=2 / 8x8dct=1 / cqm=0 / deadzone=21,11 / fast_pskip=0 / chroma_qp_offset=-3 / threads=6 / lookahead_threads=1 / sliced_threads=0 / nr=0 / decimate=1 / interlaced=0 / bluray_compat=0 / constrained_intra=0 / bframes=10 / b_pyramid=2 / b_adapt=2 / b_bias=0 / direct=3 / weightb=1 / open_gop=0 / weightp=2 / keyint=240 / keyint_min=23 / scenecut=40 / intra_refresh=0 / rc=2pass / mbtree=0 / bitrate=5030 / ratetol=1.0 / qcomp=0.60 / qpmin=0 / qpmax=69 / qpstep=4 / cplxblur=20.0 / qblur=0.5 / ip_ratio=1.40 / pb_ratio=1.30 / aq=1:0.90
Language                                 : English
Default                                  : Yes
Forced                                   : No

Audio #1
ID                                       : 2
Format                                   : AC-3
Format/Info                              : Audio Coding 3
Mode extension                           : CM (complete main)
Codec ID                                 : A_AC3
Duration                                 : 1h 58mn
Bit rate mode                            : Constant
Bit rate                                 : 640 Kbps
Channel(s)                               : 6 channels
Channel positions                        : Front: L C R, Side: L R, LFE
Sampling rate                            : 48.0 KHz
Bit depth                                : 16 bits
Compression mode                         : Lossy
Stream size                              : 542 MiB (9%)
Title                                    : Дублированный
Language                                 : Russian
Default                                  : Yes
Forced                                   : No

Audio #2
ID                                       : 3
Format                                   : AC-3
Format/Info                              : Audio Coding 3
Mode extension                           : CM (complete main)
Codec ID                                 : A_AC3
Duration                                 : 1h 58mn
Bit rate mode                            : Constant
Bit rate                                 : 640 Kbps
Channel(s)                               : 6 channels
Channel positions                        : Front: L C R, Side: L R, LFE
Sampling rate                            : 48.0 KHz
Bit depth                                : 16 bits
Compression mode                         : Lossy
Stream size                              : 542 MiB (9%)
Title                                    : Авторский, Ю.Сербин
Language                                 : Russian
Default                                  : No
Forced                                   : No

Audio #3
ID                                       : 4
Format                                   : AC-3
Format/Info                              : Audio Coding 3
Mode extension                           : CM (complete main)
Codec ID                                 : A_AC3
Duration                                 : 1h 58mn
Bit rate mode                            : Constant
Bit rate                                 : 640 Kbps
Channel(s)                               : 6 channels
Channel positions                        : Front: L C R, Side: L R, LFE
Sampling rate                            : 48.0 KHz
Bit depth                                : 16 bits
Compression mode                         : Lossy
Stream size                              : 542 MiB (9%)
Language                                 : English
Default                                  : No
Forced                                   : No

Text #1
ID                                       : 5
Format                                   : UTF-8
Codec ID                                 : S_TEXT/UTF8
Codec ID/Info                            : UTF-8 Plain Text
Title                                    : Forced
Language                                 : Russian
Default                                  : No
Forced                                   : No

Text #2
ID                                       : 6
Format                                   : UTF-8
Codec ID                                 : S_TEXT/UTF8
Codec ID/Info                            : UTF-8 Plain Text
Language                                 : Russian
Default                                  : No
Forced                                   : No

Text #3
ID                                       : 7
Format                                   : UTF-8
Codec ID                                 : S_TEXT/UTF8
Codec ID/Info                            : UTF-8 Plain Text
Language                                 : English
Default                                  : No
Forced                                   : No

Text #4
ID                                       : 8
Format                                   : UTF-8
Codec ID                                 : S_TEXT/UTF8
Codec ID/Info                            : UTF-8 Plain Text
Title                                    : SDH
Language                                 : English
Default                                  : No
Forced                                   : No

Menu
00:00:00.000                             : en:00:00:00.000
00:05:17.899                             : en:00:05:17.899
00:07:38.415                             : en:00:07:38.415
00:12:16.485                             : en:00:12:16.485
00:17:51.903                             : en:00:17:51.903
00:29:17.422                             : en:00:29:17.422
00:34:25.188                             : en:00:34:25.188
00:38:44.195                             : en:00:38:44.195
00:45:49.329                             : en:00:45:49.329
00:56:05.235                             : en:00:56:05.235
01:00:56.068                             : en:01:00:56.068
01:05:03.523                             : en:01:05:03.523
01:11:48.511                             : en:01:11:48.511
01:14:32.885                             : en:01:14:32.885
01:16:46.018                             : en:01:16:46.018
01:21:24.880                             : en:01:21:24.880
01:23:35.385                             : en:01:23:35.385
01:31:03.875                             : en:01:31:03.875
01:33:46.662                             : en:01:33:46.662
01:41:48.769                             : en:01:41:48.769
01:48:16.739                             : en:01:48:16.739
01:51:33.560                             : en:01:51:33.560

x264 [info]: frame I:1286 Avg QP:14.27 size:159724
x264 [info]: frame P:30832 Avg QP:16.03 size: 48371
x264 [info]: frame B:138307 Avg QP:18.06 size: 20040
pb.wtf



Скачать Король говорит! через торрент http://i75.fastpic.ru/big/2016/0217/d4/e78d1bb22324b3658635dfcb881c8bd4.png Скачать фильм Король говорит! через торрент бесплантно в хорошем качестве Описание:Сюжет ленты расскажет о герцоге, который готовится вступить в должность британского короля Георга VI, отца нынешней королевы ... 9.8 10 5
Info! Золотая раздача, скачанное не засчитывается.
Торрент: Зарегистрирован [2016-02-17 17:05] · скачан: 195 раз
Статус: √ проверено
Размер: 5.75 GB
Как cкачать? Как скачать Король говорит! через торрент | qTorrent

28-11-2019 20:33  

Отключить всю рекламу на сайте

    Дорогой пользователь! Огромная просьба, поблагодарите релизера, оцените раздачу и оставьте свои комментарий, если Вы скачали Король говорит! через торрент бесплатно! Внесите свою лепту в развитие PiratBit!
    Комментировать посты могут только пользователи прошедшие не сложную регистрацию
    Показать сообщения:    

    Король говорит! через торрент
    Скачать бесплатно Король говорит!
    Король говорит! скачать торрент
    Король говорит! смотреть онлайн
    Cкачать фильм Король говорит! бесплатно
    Король говорит! скачать торрент в хорошем качестве
    Король говорит! смотреть онлайн бесплатно в хорошем качестве


    Вы не можете начинать темы
    Вы не можете отвечать на сообщения
    Вы не можете редактировать свои сообщения
    Вы не можете удалять свои сообщения
    Вы не можете голосовать в опросах
    Вы не можете прикреплять файлы к сообщениям
    Вы можете скачивать файлы