Ссылка на приватное зеркало нашего сайта всего за 1$. Внимание количество ограничено!!!

2 сезон

iTunes

1 сезон

1

iTunes

iTunes

iTunes

1 сезон

RePack

30

ИГРА 18+

pack

ВАЖНО

!!Акция!!

Alien_RageХит недели

RePack

MK11
pack

Забери бонус

RePack

jed

!!Акция!!

Alien_Rage

RePack

fifa19

RePack

Assassins Creed: Odyssey

RePack

NEED FOR SPEED™ PAYBACK

4 сезон

9 сезон

Бесстыжие 9 сезон

Все сериалы

все сериалы на PB.wtf

RePack

FAR CRY 5
  

Прогулка по Миссисипи / Mississippi Grind (Анна Боден, Райан Флек) [2014, драма, BDRip 1080p] Любительский (многоголосый) [CCK Media Production] pb.wtf

Прогулка по Миссисипи через торрент pb.wtf

Размер: 13.91 GB | Добавлен: 4 года 8 мес. назад | Торрент скачан:92 раза
Скачать  

17-02-2016 22:45 Прогулка по Миссисипи Скачать торрент  


Прогулка по Миссисипи / Mississippi Grind
««We can't lose»»

ИНФОРМАЦИЯ:
Год выпуска:2014
Страна: США
Жанр: драма
Продолжительность: 01:49:10
Перевод: Любительский (многоголосый) [CCK Media Production]
Субтитры: английские,
Режиссер: Анна Боден, Райан Флек

В Ролях:


Бен Мендельсон (Gerry), Райан Рейнольдс (Curtis), Ивонн Ландри (Louise), Энтони Ховард (Larry), Джэйсон Уорнер Смит (Clifford), Керри Кехилл (Riverboat Waitress), Джейн МакНейлл («Bloody Mary» Kate), Джейсон Шаффетт (Chuck Poker Dealer), П.Дж. Маршалл (Dale), Стефани Онор (Denise), Тери Уайбл (Home Buying Wife), Хантер Бурк (Home Buying Husband)

Описание:
Фильм расскажет о стареющем картежнике, который вместе с молодым коллегой путешествует по югу Америки.

  • Мировая премьера:24 января 2015

    ТЕХ.ДАННЫЕ:
    Качество: BDRip 1080p
    Формат: MKV
    Видео: AVC, 1920x800 (2.40:1), 16859 kbps, 23,976 fps, 0,458 bpp
    Аудио №1: русский / AC3 / 2.0 / 48 kHz / 384 kbps / 16 bit ||
    Аудио №2: английский / AC3 / 5.1 / 48 kHz / 640 kbps / 16 bit
    Навигация по главам: есть


    General
    Unique ID : 203999180770009490402013342802229324701 (0x9978D0268154462D9C348405AD77EB9D)
    Complete name : D:\Торенты\Progulka.po.Missisipi.2015.MVO.BDRip.1080p.mkv
    Format : Matroska
    Format version : Version 2
    File size : 13.9 GiB
    Duration : 1h 49mn
    Overall bit rate : 18.2 Mbps
    Encoded date : UTC 2016-02-17 19:23:24
    Writing application : mkvmerge v8.3.0 ('Over the Horizon') 64bit
    Writing library : libebml v1.3.1 + libmatroska v1.4.2

    Video
    ID : 1
    Format : AVC
    Format/Info : Advanced Video Codec
    Format profile : High@L4.1
    Format settings, CABAC : Yes
    Format settings, ReFrames : 4 frames
    Codec ID : V_MPEG4/ISO/AVC
    Duration : 1h 49mn
    Bit rate : 16.9 Mbps
    Width : 1 920 pixels
    Height : 800 pixels
    Display aspect ratio : 2.40:1
    Frame rate : 23.976 fps
    Color space : YUV
    Chroma subsampling : 4:2:0
    Bit depth : 8 bits
    Scan type : Progressive
    Bits/(Pixel*Frame) : 0.458
    Stream size : 12.9 GiB (92%)
    Writing library : x264 core 148 r2638 7599210
    Encoding settings : cabac=1 / ref=4 / deblock=1:-3:-3 / analyse=0x3:0x113 / me=umh / subme=10 / psy=1 / psy_rd=1.00:0.00 / mixed_ref=1 / me_range=24 / chroma_me=1 / trellis=2 / 8x8dct=1 / cqm=0 / deadzone=21,11 / fast_pskip=1 / chroma_qp_offset=-2 / threads=6 / lookahead_threads=1 / sliced_threads=0 / nr=0 / decimate=1 / interlaced=0 / bluray_compat=0 / constrained_intra=0 / bframes=8 / b_pyramid=2 / b_adapt=2 / b_bias=0 / direct=1 / weightb=1 / open_gop=0 / weightp=2 / keyint=250 / keyint_min=25 / scenecut=40 / intra_refresh=0 / rc_lookahead=60 / rc=crf / mbtree=0 / crf=17.5 / qcomp=0.60 / qpmin=0 / qpmax=69 / qpstep=4 / vbv_maxrate=62500 / vbv_bufsize=78125 / crf_max=0.0 / nal_hrd=none / filler=0 / ip_ratio=1.40 / pb_ratio=1.30 / aq=1:0.80
    Default : Yes
    Forced : No

    Audio #1
    ID : 2
    Format : AC-3
    Format/Info : Audio Coding 3
    Mode extension : CM (complete main)
    Codec ID : A_AC3
    Duration : 1h 49mn
    Bit rate mode : Constant
    Bit rate : 384 Kbps
    Channel(s) : 2 channels
    Channel positions : Front: L R
    Sampling rate : 48.0 KHz
    Bit depth : 16 bits
    Compression mode : Lossy
    Stream size : 300 MiB (2%)
    Language : Russian
    Default : Yes
    Forced : No

    Audio #2
    ID : 3
    Format : AC-3
    Format/Info : Audio Coding 3
    Mode extension : CM (complete main)
    Codec ID : A_AC3
    Duration : 1h 49mn
    Bit rate mode : Constant
    Bit rate : 640 Kbps
    Channel(s) : 6 channels
    Channel positions : Front: L C R, Side: L R, LFE
    Sampling rate : 48.0 KHz
    Bit depth : 16 bits
    Compression mode : Lossy
    Stream size : 500 MiB (4%)
    Language : English
    Default : No
    Forced : No

    Text
    ID : 4
    Format : UTF-8
    Codec ID : S_TEXT/UTF8
    Codec ID/Info : UTF-8 Plain Text
    Language : English
    Default : No
    Forced : No

    Menu
    00:00:00.000 : en:Chapter 01
    00:11:20.972 : en:Chapter 02
    00:23:49.553 : en:Chapter 03
    00:37:59.110 : en:Chapter 04
    00:50:30.986 : en:Chapter 05
    01:01:54.044 : en:Chapter 06
    01:12:27.343 : en:Chapter 07
    01:21:40.229 : en:Chapter 08
    01:31:50.171 : en:Chapter 09
    01:44:25.968 : en:Chapter 10
    Скриншоты:

    © Оформление by .::Ворон::.
    pb.wtf



  • Скачать Прогулка по Миссисипи через торрент http://pic.kartinco.top/images/6/ordi9.jpg Скачать фильм Прогулка по Миссисипи через торрент бесплантно в хорошем качестве Описание: Фильм расскажет о стареющем картежнике, который вместе с молодым коллегой путешествует по югу Америки. Мировая премьера:24 января ... 7.4 10 5
    Торрент: Зарегистрирован [2016-02-17 22:45] · скачан: 92 раз
    Статус: T временная
    Размер: 13.91 GB
    Как cкачать? Как скачать Прогулка по Миссисипи через торрент | qTorrent

    % Раздел Тема Автор DL S | L
    T Фильмы 2015 [DVDrip, WEB-DLRip, HDrip] [ 1.4 GB ] Прогулка по Миссисипи / Mississippi Grind [2015 HDRip Любительский многоголосый [CCK Media Production] Ворон Скачать
    1 | 1
    Фильмы с авторской озвучкой [ 2.18 GB ] Прогулка по Миссисипи / Mississippi Grind [2015 BDRip-AVC от _denis_100 / NNNB] Авторский [М. Чадов] _denis_100 Скачать
    1 | 0
    T Фильмы 2015 (Звук TS, Cam, VO, DVO) [ 1.45 GB ] Прогулка по Миссисипи / Mississippi Grind [2015 HDRip Любительский двухголосый [Parovoz Production] Ворон Скачать
    1 | 0
    T Фильмы 2015 (Звук TS, Cam, VO, DVO) [ 1.42 GB ] Прогулка по Миссисипи / Mississippi Grind [2015 WEB-DLRip Любительский одноголосый [R.A.I.M.] Ворон Скачать
    1 | 0

    28-11-2019 20:33  

    Отключить всю рекламу на сайте

    02-05-2016 18:24 Прогулка по Миссисипи Скачать торрент  

    у меня у одного рассинхрон со звуком ?pb.wtf



      Дорогой пользователь! Огромная просьба, поблагодарите релизера, оцените раздачу и оставьте свои комментарий, если Вы скачали Прогулка по Миссисипи через торрент бесплатно! Внесите свою лепту в развитие PiratBit!
      Комментировать посты могут только пользователи прошедшие не сложную регистрацию
      Показать сообщения:    

      Прогулка по Миссисипи через торрент
      Скачать бесплатно Прогулка по Миссисипи
      Прогулка по Миссисипи скачать торрент
      Прогулка по Миссисипи смотреть онлайн
      Cкачать фильм Прогулка по Миссисипи бесплатно
      Прогулка по Миссисипи скачать торрент в хорошем качестве
      Прогулка по Миссисипи смотреть онлайн бесплатно в хорошем качестве


      Вы не можете начинать темы
      Вы не можете отвечать на сообщения
      Вы не можете редактировать свои сообщения
      Вы не можете удалять свои сообщения
      Вы не можете голосовать в опросах
      Вы не можете прикреплять файлы к сообщениям
      Вы можете скачивать файлы