Ссылка на приватное зеркало всего за 1$. Внимание количество ограничено!!!

OK

1+1

iTunes

мы

OK

1

WEB-DLRip

Джокер

Пифагор

Ведьмак / The Witcher сериал

iTunes

ПШазам

ОК

Оно 2

iTunes

30
pack

Вам бонус

ВАЖНО

!!Акция!!

Alien_RageХит недели

RePack

Resident Evil 21

ИГРА 18+

pack

RePack

jed

RePack

fifa19

RePack

Assassins Creed: Odyssey

RePack

NEED FOR SPEED™ PAYBACK

4 сезон

9 сезон

Бесстыжие 9 сезон

Все сериалы

все сериалы на PB.wtf

RePack

FAR CRY 5
  

Волна / Bølgen (Роар Утхауг / Roar Uthaug) [2015, боевик, триллер, драма, BDRip-AVC от potroks] Dub [iTunes] pb.wtf

Волна через торрент pb.wtf

Размер: 1.41 GB | Добавлен: 3 года 11 мес. назад | Торрент скачан:600 раз
Скачать  

18-02-2016 14:49 Волна Скачать торрент  

Волна / Bølgen
«It was only a matter of time»
Год выпуска: 2015
Страна: Норвегия / Fantefilm, Film i Väst
Жанр: боевик, триллер, драма
Продолжительность: 01:44:54
Перевод: Дубляж [iTunes]
Субтитры: русские (полные + SDH)
Навигация по главам: есть
Режиссер: Роар Утхауг / Roar Uthaug
В ролях:

Кристоффер Йонер (Kristian), Томас Бо Ларсен (Phillip), Эни Даль Торп (Idun), Фридтьов Сохейм (Arvid Øvrebø), Йонас Хофф Офтебро (Sondre), Эдит Хогенруд-Сэнд (Julia), Элли Харбоа (Vibeke), Ладо Хаджич (Bussjåfør), Артур Бернинг (Jacob Vikra), Лайла Гуди (Margot Valldal), Херман Бернхофт (Georg), Метта Агнета Хорн (Maria)
Описание: Сигнал тревоги разносится над спящим городом. То, чего так боялись сейсмологи, сбылось - сильнейший тектонический сдвиг вызывает обрушение горного массива. Теперь гигантское смертоносное цунами движется прямо на людей. Опытный геолог Кристиан Айкорд оказывается в эпицентре самого страшного кошмара своей жизни.

Качество: BDRip-AVC
Формат: MKV
Видео кодек: AVC
Аудио кодек: AC3
Видео: 1008x422 (2.40:1), 1545 kbps, 24 fps, 0,151 bit/pixel
Аудио: AC3 / 5.1 / 48 kHz / 384 kbps / 16 bit

Релиз группы:
Автор рипа: potroks

Код:

Общее
Уникальный идентификатор : 228083898131590100009642776060712067162 (0xAB975C658AF31035A31C900E0FE2205A)
Полное имя : Volna.2015.RUS.BDRip.x264.-HELLYWOOD.mkv
Формат : Matroska
Версия формата : Version 4 / Version 2
Размер файла : 1,41 Гбайт
Продолжительность : 1 ч. 44 м.
Общий поток : 1927 Кбит/сек
Название фильма : Bølgen (2015) - HELLYWOOD
Дата кодирования : UTC 2016-02-18 12:09:21
Программа кодирования : mkvmerge v5.9.0 ('On The Loose') built on Dec 15 2012 16:39:58
Библиотека кодирования : libebml v1.3.0 + libmatroska v1.4.0

Видео
Идентификатор : 1
Формат : AVC
Формат/Информация : Advanced Video Codec
Профиль формата : High@L4.1
Параметр CABAC формата : Да
Параметр ReFrames формата : 11 кадров
Идентификатор кодека : V_MPEG4/ISO/AVC
Продолжительность : 1 ч. 44 м.
Битрейт : 1545 Кбит/сек
Ширина : 1008 пикселей
Высота : 422 пикселя
Соотношение сторон : 2,40:1
Режим частоты кадров : Постоянный
Частота кадров : 24,000 кадра/сек
Цветовое пространство : YUV
Субдискретизация насыщенности : 4:2:0
Битовая глубина : 8 бит
Тип развёртки : Прогрессивная
Бит/(Пиксели*Кадры) : 0.151
Размер потока : 1,10 Гбайт (78%)
Заголовок : potroks
Библиотека кодирования : x264 core 146 r2538 121396c
Настройки программы : cabac=1 / ref=11 / deblock=1:-2:-2 / analyse=0x3:0x113 / me=umh / subme=11 / psy=1 / psy_rd=1.00:0.05 / mixed_ref=1 / me_range=48 / chroma_me=1 / trellis=2 / 8x8dct=1 / cqm=0 / deadzone=21,11 / fast_pskip=0 / chroma_qp_offset=-3 / threads=9 / lookahead_threads=2 / sliced_threads=0 / nr=0 / decimate=0 / interlaced=0 / bluray_compat=0 / constrained_intra=0 / bframes=12 / b_pyramid=2 / b_adapt=2 / b_bias=0 / direct=3 / weightb=1 / open_gop=0 / weightp=2 / keyint=240 / keyint_min=23 / scenecut=40 / intra_refresh=0 / rc_lookahead=60 / rc=2pass / mbtree=0 / bitrate=1545 / ratetol=1.0 / qcomp=0.70 / qpmin=0 / qpmax=69 / qpstep=4 / cplxblur=20.0 / qblur=0.5 / vbv_maxrate=14000 / vbv_bufsize=14000 / nal_hrd=none / filler=0 / ip_ratio=1.40 / pb_ratio=1.30 / aq=1:0.80
Язык : English
Default : Да
Forced : Нет

Аудио
Идентификатор : 2
Формат : AC-3
Формат/Информация : Audio Coding 3
Расширение режима : CM (complete main)
Параметр Endianness формата : Big
Идентификатор кодека : A_AC3
Продолжительность : 1 ч. 44 м.
Вид битрейта : Постоянный
Битрейт : 384 Кбит/сек
Каналы : 6 каналов
Расположение каналов : Front: L C R, Side: L R, LFE
Частота : 48,0 КГц
Метод сжатия : С потерями
Размер потока : 288 Мбайт (20%)
Заголовок : Dub | DD 5.1 @ 384 kbps - iTunes
Язык : Russian
Default : Да
Forced : Нет

Текст #1
Идентификатор : 3
Формат : UTF-8
Идентификатор кодека : S_TEXT/UTF8
Идентификатор кодека/Информация : UTF-8 Plain Text
Заголовок : Full
Язык : Russian
Default : Нет
Forced : Нет

Текст #2
Идентификатор : 4
Формат : UTF-8
Идентификатор кодека : S_TEXT/UTF8
Идентификатор кодека/Информация : UTF-8 Plain Text
Заголовок : SDH [potroks]
Язык : Russian
Default : Нет
Forced : Нет

Меню
00:00:00.000 : en:Chapter 1
00:09:59.625 : en:Chapter 2
00:19:59.583 : en:Chapter 3
00:30:00.000 : en:Chapter 4
00:39:59.875 : en:Chapter 5
00:49:59.666 : en:Chapter 6
01:00:00.000 : en:Chapter 7
01:09:59.666 : en:Chapter 8
01:19:59.791 : en:Chapter 9
01:30:00.000 : en:Chapter 10
01:39:59.750 : en:Chapter 11

pb.wtf



Скачать Волна через торрент http://i75.fastpic.ru/big/2016/0218/01/ddd152a5d0ec73324b407d636f5ef101.png Скачать фильм Волна через торрент бесплантно в хорошем качестве Описание: Сигнал тревоги разносится над спящим городом. То, чего так боялись сейсмологи, сбылось - сильнейший тектонический сдвиг вызывает ... 9.2 10 15
Info! Золотая раздача, скачанное не засчитывается.
Торрент: Зарегистрирован [2016-02-18 14:49] · скачан: 600 раз
Статус: √ проверено
Размер: 1.41 GB
Как cкачать? Как скачать Волна через торрент | qTorrent

% Раздел Тема Автор DL S | L
Гонзо [ 1.44 GB ] Не Волнуйтесь Он Мой Сводный Брат 2 / Don't Worry He's My Stepbrother 2 [2017 All Sex Oral Gonzo Legal Teen WEB-DLRip 480p] Split Scenes sheker187 Скачать
1 | 0
Фильмы 2015 [DVDrip, WEB-DLRip, HDrip] [ 2.13 GB ] Волна / Bølgen [2015 BDRip-AVC] Dub potroks Скачать
1 | 0
Фильмы 2015 [DVDrip, WEB-DLRip, HDrip] [ 2.13 GB ] Волна / Bølgen [2015 Норвегия BDRip-AVC от sokol_ok] Dub sokol_ok Скачать
2 | 0
R.G. Resident & PiratVoice - Фильмы, Видео [ 1.46 GB ] Волна / Bølgen [2015 BDRip-AVC ] schultz Скачать
1 | 0
Фильмы [HD 720p, 1080p] (Хороший звук DUB, MVO) [ 4.35 GB ] Волна / Bølgen [2015 BDRip 720р] $-DRON-$ Скачать
1 | 0
Фильмы 2015 [DVDrip, WEB-DLRip, HDrip] [ 2.05 GB ] Волна / Bølgen [2015 HDRip] $-DRON-$ Скачать
1 | 0
Фильмы 2015 [DVDrip, WEB-DLRip, HDrip] [ 1.41 GB ] Волна / Bølgen [2015 BDRip ] Twi7ter Скачать
1 | 0

28-11-2019 20:33  

Отключить всю рекламу на сайте


18-02-2016 17:34 Волна Скачать торрент  

Такой себе фильм , сравним с теми, что по тв3 показывают, но чуть больший бюджет. Так себе 4\10 pb.wtf



18-02-2016 21:35 Волна Скачать торрент  

Отличный фильм катастрофа. Красивые виды Норвегии. Для европейского кино 10/10. Со шлаком с тв3 не сравним. Выдвинут на Оскар «Лучший зарубежный фильм» 2016. Актеры играют хорошо, кто смотрел Лиллихамер увидит знакомого актера. Конечно катастрофа локального масштаба, но она действительно рано или поздно произойдет в Норвегии.pb.wtf



    Дорогой пользователь! Огромная просьба, поблагодарите релизера, оцените раздачу и оставьте свои комментарий, если Вы скачали Волна через торрент бесплатно! Внесите свою лепту в развитие PiratBit!
    Комментировать посты могут только пользователи прошедшие не сложную регистрацию
    Показать сообщения:    

    Волна через торрент
    Скачать бесплатно Волна
    Волна скачать торрент
    Волна смотреть онлайн
    Cкачать фильм Волна бесплатно
    Волна скачать торрент в хорошем качестве
    Волна смотреть онлайн бесплатно в хорошем качестве


    Вы не можете начинать темы
    Вы не можете отвечать на сообщения
    Вы не можете редактировать свои сообщения
    Вы не можете удалять свои сообщения
    Вы не можете голосовать в опросах
    Вы не можете прикреплять файлы к сообщениям
    Вы можете скачивать файлы