Ссылка на приватное зеркало нашего сайта всего за 1$. Внимание количество ограничено!!!

2 сезон

iTunes

iTunes

1

iTunes

iTunes

iTunes

WEBRip

iTunes

30
pack

Вам бонус

ВАЖНО

!!Акция!!

Alien_RageХит недели

RePack

Horizon Zero Dawn

ИГРА 18+

pack

RePack

jed

!!Акция!!

Alien_Rage

RePack

fifa19

RePack

Assassins Creed: Odyssey

RePack

NEED FOR SPEED™ PAYBACK

4 сезон

9 сезон

Бесстыжие 9 сезон

Все сериалы

все сериалы на PB.wtf

RePack

FAR CRY 5
  

Крид: Наследие Рокки / Creed (Райан Куглер) [2015 г., драма, спорт, HDRip, Дубляж "Blu-ray CEE"] pb.wtf

Крид: Наследие Рокки через торрент pb.wtf

Размер: 2.19 GB | Добавлен: 4 года 4 мес. назад | Торрент скачан:109 раз
Скачать  

18-02-2016 18:28 Крид: Наследие Рокки Скачать торрент  

Крид: Наследие Рокки / Creed
Год выпуска: 2015
Страна: США / Metro-Goldwyn-Mayer (MGM), Warner Bros., New Line Cinema
Жанр: драма, спорт
Продолжительность: 02:13:10
Перевод: Дубляж (Blu-ray CEE)

Режиссер: Райан Куглер

IMDB 7.90 (85 699)


В ролях: Майкл Б. Джордан, Сильвестр Сталлоне, Тесса Томпсон, Филисия Рашад, Андре Уорд, Тони Белью, Ричи Костер, Джейкоб ’Стич’ Дюран, Грэм МакТавиш

Описание: В центре внимания сын Аполло Крида — первого серьезного соперника Рокки Бальбоа на ринге, впоследствии ставшего лучшим другом героя. Талант отца в какой-то момент проявляется и в Криде-младшем, и юноша отправляется на поиски наставника, коим для него в итоге становится постаревший Рокки, тоже не слишком жаждущий возвращаться к старым делам. Даже в качестве тренера.

Качество: HDRip
Формат: AVI
Видео кодек: XviD
Аудио кодек: AC3
Видео: MPEG4, XviD, 720x304 (2.35:1), 23.976 fps, 1 898 Kbps (0.362 bit/pixel)
Аудио: AC-3, 48.0 KHz, 6 ch, 448 Kbps, CBR
скриншот   скриншот   скриншот   скриншот   скриншот   скриншот  

Общее
Полное имя : F:\кино\Крид.Наследие Рокки.2015.D.HDRip.avi
Формат : AVI
Формат/Информация : Audio Video Interleave
Профиль формата : OpenDML
Размер файла : 2,19 Гбайт
Продолжительность : 2 ч. 13 м.
Общий поток : 2358 Кбит/сек
Программа кодирования : VirtualDubMod 1.5.10.3 | www.virtualdub-fr.org || (build 2550/release)
Библиотека кодирования : VirtualDubMod build 2550/release

Видео
Идентификатор : 0
Формат : MPEG-4 Visual
Профиль формата : Advanced Simple@L5
Параметр BVOP формата : 1
Параметр QPel формата : Нет
Параметр GMC формата : Без точки перехода
Параметр матрицы формата : Default (H.263)
Идентификатор кодека : XVID
Идентификатор кодека/Подсказка : XviD
Продолжительность : 2 ч. 13 м.
Битрейт : 1898 Кбит/сек
Ширина : 720 пикселей
Высота : 304 пикселя
Соотношение сторон : 2,35:1
Частота кадров : 23,976 (23976/1000) кадра/сек
Цветовое пространство : YUV
Субдискретизация насыщенности : 4:2:0
Битовая глубина : 8 бит
Тип развёртки : Прогрессивная
Метод сжатия : С потерями
Бит/(Пиксели*Кадры) : 0.362
Размер потока : 1,77 Гбайт (80%)
Библиотека кодирования : XviD 1.2.1 (UTC 2008-12-04)

Аудио
Идентификатор : 1
Формат : AC-3
Формат/Информация : Audio Coding 3
Расширение режима : CM (complete main)
Параметр Endianness формата : Big
Идентификатор кодека : 2000
Продолжительность : 2 ч. 13 м.
Вид битрейта : Постоянный
Битрейт : 448 Кбит/сек
Каналы : 6 каналов
Расположение каналов : Front: L C R, Side: L R, LFE
Частота : 48,0 КГц
Частота кадров : 31,250 кадров/сек (1536 spf)
Метод сжатия : С потерями
Размер потока : 427 Мбайт (19%)
Выравнивание : Разделение по промежуткам
Продолжительность промежутка : 42 мс. (1,00 видеокадр)
Время предзагрузки промежутка : 500 мс.

pb.wtf



Скачать Крид: Наследие Рокки через торрент http://pic.kartinco.top/images/11/5ljda.jpg Скачать фильм Крид: Наследие Рокки через торрент бесплантно в хорошем качестве Описание: В центре внимания сын Аполло Крида — первого серьезного соперника Рокки Бальбоа на ринге, впоследствии ставшего лучшим другом ... 9.9 10 17
Торрент: Зарегистрирован [2016-05-06 18:17] · скачан: 109 раз
Статус: √ проверено
Размер: 2.19 GB
Как cкачать? Как скачать Крид: Наследие Рокки через торрент | qTorrent

% Раздел Тема Автор DL S | L
Фильмы (HD 720p, 1080p) (48-60 fps) [ 4.05 GB ] Крид: Наследие Рокки / Creed [2015 BDRip 720p / 60 FPS ] от R.G. HD-Films slaventi-69 Скачать
1 | 0
Фильмы с авторской озвучкой [ 1.46 GB ] Крид: Наследие Рокки / Creed [2015 BDRip] [AVO] killermax2013 Скачать
2 | 0
Фильмы 2015 [DVDrip, WEB-DLRip, HDrip] [ 1.49 GB ] Крид: Наследие Рокки / Creed [2015 BDRip-AVC] sokol_ok Скачать
1 | 0
Ultra HD (UHD: 2K, 4K, 8K) — видео сверхвысокой чёткости [ 56.85 GB ] Крид: Наследие Рокки / Creed [2015 UHD BDRemux 2160p] MVO+AVO+DUB [] bober100 Скачать
2 | 0
Фильмы 2015 [DVDrip, WEB-DLRip, HDrip] [ 1.46 GB ] Крид: Наследие Рокки / Creed [2015 BDRip-AVC] DUB potroks Скачать
1 | 0
Фильмы 2015 [DVDrip, WEB-DLRip, HDrip] [ 2.91 GB ] Крид: Наследие Рокки / Creed [2015 BDRip-AVC] DUB potroks Скачать
1 | 0
Фильмы [HD 720p, 1080p] (Хороший звук DUB, MVO) [ 7.94 GB ] Крид: Наследие Рокки / Creed [2015 BDRip 720p] DUB MVO AVO potroks Скачать
2 | 0


Последний раз редактировалось: coc900 (2016-05-06 18:17), всего редактировалось 1 раз

28-11-2019 20:33  

Отключить всю рекламу на сайте

19-02-2016 07:24 Крид: Наследие Рокки Скачать торрент  

отличный фильм!pb.wtf



19-02-2016 19:28 Крид: Наследие Рокки Скачать торрент  

kak zvuk?pb.wtf



06-05-2016 18:19 Крид: Наследие Рокки Скачать торрент  

Релиз обновлен ! Просьба перекачать торрент файл ! pb.wtf



06-05-2016 21:29 Крид: Наследие Рокки Скачать торрент  

фильм просто класс pb.wtf



    Дорогой пользователь! Огромная просьба, поблагодарите релизера, оцените раздачу и оставьте свои комментарий, если Вы скачали Крид: Наследие Рокки через торрент бесплатно! Внесите свою лепту в развитие PiratBit!
    Комментировать посты могут только пользователи прошедшие не сложную регистрацию
    Показать сообщения:    

    Крид: Наследие Рокки через торрент
    Скачать бесплатно Крид: Наследие Рокки
    Крид: Наследие Рокки скачать торрент
    Крид: Наследие Рокки смотреть онлайн
    Cкачать фильм Крид: Наследие Рокки бесплатно
    Крид: Наследие Рокки скачать торрент в хорошем качестве
    Крид: Наследие Рокки смотреть онлайн бесплатно в хорошем качестве


    Вы не можете начинать темы
    Вы не можете отвечать на сообщения
    Вы не можете редактировать свои сообщения
    Вы не можете удалять свои сообщения
    Вы не можете голосовать в опросах
    Вы не можете прикреплять файлы к сообщениям
    Вы можете скачивать файлы