Ссылка на приватное зеркало всего за 1$. Внимание количество ограничено!!!

OK

1+1

iTunes

мы

OK

1

WEB-DLRip

Джокер

Пифагор

Ведьмак / The Witcher сериал

iTunes

ПШазам

ОК

Оно 2

iTunes

30
pack

Вам бонус

ВАЖНО

!!Акция!!

Alien_RageХит недели

RePack

Resident Evil 21

ИГРА 18+

pack

RePack

jed

RePack

fifa19

RePack

Assassins Creed: Odyssey

RePack

NEED FOR SPEED™ PAYBACK

4 сезон

9 сезон

Бесстыжие 9 сезон

Все сериалы

все сериалы на PB.wtf

RePack

FAR CRY 5
  

Округ свиней (Кошмар в Беркшире) / Berkshire County (Одри Каммингс) [2014, ужасы, триллер, HDRip] DVO+VO pb.wtf

Округ свиней через торрент pb.wtf

Размер: 1.45 GB | Добавлен: 3 года 11 мес. назад | Торрент скачан:94 раза
Скачать  

18-02-2016 20:45 Округ свиней Скачать торрент  


Округ свиней (Кошмар в Беркшире) / Berkshire County


ИНФОРМАЦИЯ:
Год выпуска:2014
Страна: Канада
Жанр: ужасы, триллер
Продолжительность: 01:23:00
Перевод: Любительский (двухголосый)+/Любительский одноголосый
Режиссер: Одри Каммингс

В Ролях:


Алиса Кинг (Kylie Winters), Самора Смоллвуд (Roberta), Барт Рошон (Swine), Аарон Чартрэнд (Marcus), Мэдисон Фергюсон (Phoebe), Cristophe Gallander (Sam), Leo Pady (Piglet), Роберт Нолан (Glen Harrison), Джози Янг (Amy Winters), Daphne Moens (Chelsea), Marcus Tarnoy (Stockton), Дэниэл Столфи (Reilly)

Описание:
Кайли становится жертвой сексуального надругательства на вечеринке у популярного юноши, друзья которого снимают позор девушки на видео и распространяют ролик по социальным сетям. Претерпев издевательства над собой со стороны соучеников на вечеринке, Кайли Уинтерс, чтобы не оставаться на Хэллоуин у себя в городе, соглашается присмотреть за детьми в отдаленном загородном особняке. Хозяева оставляют на ее попечение двух маленьких детей и вазу с конфетами на случай, если в День Всех Святых придут маленькие попрошайки.
Через какое-то время действительно раздается стук в дверь, и, открыв ее, Кайли видит маленького мальчика с поросячьей маской на голове, а за ним мужчину в маске свиньи, вид которого не предвещает ничего хорошего. В испуге она закрывает дверь, но избавиться от страшных гостей не так-то просто. Ей придется собрать все свое мужество, чтобы спасти себя и двоих детей от вломившихся в дом убийц...

  • Мировая премьера:5 октября 2014

    ТЕХ.ДАННЫЕ:
    Качество: HDRip
    Формат: AVI
    Видео: XviD, 720x320 (2.25:1), 1811 kbps, 23,976 fps, 0,328 bpp
    Аудио №1: AC3 / 2.0 / 48 kHz / 192 kbps / Любительский двухголосый (2D)
    Аудио №2: AC3 / 5.1 / 48 kHz / 384 kbps /Любительский одноголосый (xixidok)


    General
    Complete name : D:\Торенты\Berkshire.County.2014.HDRip.avi
    Format : AVI
    Format/Info : Audio Video Interleave
    File size : 1.45 GiB
    Duration : 1h 23mn
    Overall bit rate : 2 497 Kbps
    Writing application : VirtualDubMod 1.5.10.2 (build 2540/release)
    Writing library : VirtualDubMod build 2540/release
    Copyright : ExKinoRay

    Video
    ID : 0
    Format : MPEG-4 Visual
    Format profile : Advanced Simple@L5
    Format settings, BVOP : 1
    Format settings, QPel : No
    Format settings, GMC : No warppoints
    Format settings, Matrix : Custom
    Codec ID : XVID
    Codec ID/Hint : XviD
    Duration : 1h 23mn
    Bit rate : 1 811 Kbps
    Width : 720 pixels
    Height : 320 pixels
    Display aspect ratio : 2.25:1
    Frame rate : 23.976 fps
    Color space : YUV
    Chroma subsampling : 4:2:0
    Bit depth : 8 bits
    Scan type : Progressive
    Compression mode : Lossy
    Bits/(Pixel*Frame) : 0.328
    Stream size : 1.05 GiB (73%)
    Writing library : XviD 73

    Audio #1
    ID : 1
    Format : AC-3
    Format/Info : Audio Coding 3
    Mode extension : CM (complete main)
    Codec ID : 2000
    Duration : 1h 23mn
    Bit rate mode : Constant
    Bit rate : 192 Kbps
    Channel(s) : 2 channels
    Channel positions : Front: L R
    Sampling rate : 48.0 KHz
    Bit depth : 16 bits
    Compression mode : Lossy
    Stream size : 114 MiB (8%)
    Alignment : Split accross interleaves

    Audio #2
    ID : 2
    Format : AC-3
    Format/Info : Audio Coding 3
    Mode extension : CM (complete main)
    Codec ID : 2000
    Duration : 1h 23mn
    Bit rate mode : Constant
    Bit rate : 384 Kbps
    Channel(s) : 6 channels
    Channel positions : Front: L C R, Side: L R, LFE
    Sampling rate : 48.0 KHz
    Bit depth : 16 bits
    Compression mode : Lossy
    Stream size : 228 MiB (15%)
    Alignment : Split accross interleaves
    Скриншоты:

    © Оформление by .::Ворон::.
    pb.wtf



  • Скачать Округ свиней через торрент http://pic.kartinco.top/images/6/ordi9.jpg Скачать фильм Округ свиней через торрент бесплантно в хорошем качестве Описание: Кайли становится жертвой сексуального надругательства на вечеринке у популярного юноши, друзья которого снимают позор девушки на ... 7.8 10 4
    Торрент: Зарегистрирован [2016-02-18 20:45] · скачан: 94 раз
    Статус: T временная
    Размер: 1.45 GB
    Как cкачать? Как скачать Округ свиней через торрент | qTorrent

    28-11-2019 20:33  

    Отключить всю рекламу на сайте


    19-02-2016 06:25 Округ свиней Скачать торрент  

    мне кажется или что-то подобное со свиными головами уже было!?pb.wtf



    19-02-2016 08:53 Округ свиней Скачать торрент  

    Bob 13 писал(а):

    мне кажется или что-то подобное со свиными головами уже было!?

    ага, в трёх поросятахpb.wtf



    19-02-2016 15:39 Округ свиней Скачать торрент  

    shadow912 писал(а):

    Bob 13 писал(а):

    мне кажется или что-то подобное со свиными головами уже было!?

    ага, в трёх поросятах

    не три поросёнка по страшнее будут pb.wtf



      Дорогой пользователь! Огромная просьба, поблагодарите релизера, оцените раздачу и оставьте свои комментарий, если Вы скачали Округ свиней через торрент бесплатно! Внесите свою лепту в развитие PiratBit!
      Комментировать посты могут только пользователи прошедшие не сложную регистрацию
      Показать сообщения:    

      Округ свиней через торрент
      Скачать бесплатно Округ свиней
      Округ свиней скачать торрент
      Округ свиней смотреть онлайн
      Cкачать фильм Округ свиней бесплатно
      Округ свиней скачать торрент в хорошем качестве
      Округ свиней смотреть онлайн бесплатно в хорошем качестве


      Вы не можете начинать темы
      Вы не можете отвечать на сообщения
      Вы не можете редактировать свои сообщения
      Вы не можете удалять свои сообщения
      Вы не можете голосовать в опросах
      Вы не можете прикреплять файлы к сообщениям
      Вы можете скачивать файлы