Ссылка на приватное зеркало всего за 1$. Внимание количество ограничено!!!

iTunes

iTunes

iTunes

1

iTunes

iTunes

iTunes

iTunes

iTunes

30
pack

Новость дня

ВАЖНО

!!Акция!!

Alien_RageХит недели

RePack

Resident Evil 21

ИГРА 18+

pack

RePack

jed

!!Акция!!

Alien_Rage

RePack

fifa19

RePack

Assassins Creed: Odyssey

RePack

NEED FOR SPEED™ PAYBACK

4 сезон

9 сезон

Бесстыжие 9 сезон

Все сериалы

все сериалы на PB.wtf

RePack

FAR CRY 5
  

Самый лучший день (Жора Крыжовников) [2015, Россия, комедия, музыка, BDRip от keeper.52] Лицензия pb.wtf

Самый лучший день через торрент pb.wtf

Раздают: 1 [ 0 KB/s ]
Размер: 1.47 GB | Добавлен: 4 года 3 мес. назад | Торрент скачан:3158 раз
Скачать  

19-02-2016 10:52 Самый лучший день Скачать торрент  

Самый лучший день«Душа поёт!»
Год выпуска: 2015
Страна: Россия
Жанр: комедия, музыка
Продолжительность: 01:47:05
Перевод: Не требуется [Лицензия]
Субтитры: нет

Режиссер: Жора Крыжовников

В ролях: Дмитрий Нагиев, Юлия Александрова, Ольга Серябкина, Инна Чурикова, Михаил Боярский, Елена Яковлева, Владислав Ветров, Валентина Мазунина, Ян Цапник, Андрей Малахов

Описание: Успешному сотруднику ДПС Пете Васютину уже давно пора заводить семью, а он живет с мамой, хозяйкой придорожного кафе. И невеста есть — королева бензоколонки, кассирша Оля. В тот самый день, когда Петя решает сделать Оле предложение, в его служебную машину врезается пьяная поп-звезда Алина Шёпот. Чтобы избежать наказания, Алина решает соблазнить Петю…



Качество видео: BDRip / Blu-ray 1080p
Формат видео: AVI

Видео: 720x384 (1.85:1), 24 fps, XviD build 73 ~1509 kbps avg, 0.227 bit/pixel
Аудио: 48 kHz, AC3 Dolby Digital, 3/2 (L,C,R,l,r) + LFE ch, 448 kbps Constant

Релиз от:
General
Format : AVI
Format/Info : Audio Video Interleave
File size : 1.47 GiB
Duration : 1h 47mn
Overall bit rate : 1 966 Kbps
Writing application : VirtualDubMod 1.5.10.3 (build 2550/release)
Writing library : VirtualDubMod build 2550/release

Video
ID : 0
Format : MPEG-4 Visual
Format profile : Advanced Simple@L5
Format settings, BVOP : 1
Format settings, QPel : No
Format settings, GMC : No warppoints
Format settings, Matrix : Custom
Codec ID : XVID
Codec ID/Hint : XviD
Duration : 1h 47mn
Bit rate : 1 509 Kbps
Width : 720 pixels
Height : 384 pixels
Display aspect ratio : 1.85:1
Frame rate : 24.000 fps
Color space : YUV
Chroma subsampling : 4:2:0
Bit depth : 8 bits
Scan type : Progressive
Compression mode : Lossy
Bits/(Pixel*Frame) : 0.227
Stream size : 1.13 GiB (77%)
Writing library : XviD 73

Audio
ID : 1
Format : AC-3
Format/Info : Audio Coding 3
Mode extension : CM (complete main)
Format settings, Endianness : Big
Codec ID : 2000
Duration : 1h 47mn
Bit rate mode : Constant
Bit rate : 448 Kbps
Channel(s) : 6 channels
Channel positions : Front: L C R, Side: L R, LFE
Sampling rate : 48.0 KHz
Frame rate : 31.250 fps (1536 spf)
Compression mode : Lossy
Stream size : 343 MiB (23%)
Alignment : Split accross interleaves
Interleave, duration : 42 ms (1.00 video frame)
Interleave, preload duratio : 500 ms
pb.wtf



Скачать Самый лучший день через торрент http://s017.radikal.ru/i403/1602/c5/0967e59b49fa.jpg Скачать фильм Самый лучший день через торрент бесплантно в хорошем качестве Описание: Успешному сотруднику ДПС Пете Васютину уже давно пора заводить семью, а он живет с мамой, хозяйкой придорожного кафе. И невеста ... 9.2 10 60
Info! Золотая раздача, скачанное не засчитывается.
Торрент: Зарегистрирован [2016-02-19 10:52] · скачан: 3 158 раз
Статус: √ проверено
Размер: 1.47 GB
Как cкачать? Как скачать Самый лучший день через торрент | qTorrent

% Раздел Тема Автор DL S | L
Наши фильмы (HD, WEB-DL 720p, 1080p) [ 4.37 GB ] Самый лучший день [2015 музыка BDRip 720p] potroks Скачать
2 | 0
Наши новые фильмы 2015 [ 1.46 GB ] Самый лучший день [2015 музыка BDRip Оригинальный [] Twi7ter Скачать
1 | 0
Наши фильмы (HD, WEB-DL 720p, 1080p) [ 9.35 GB ] Самый лучший день [2015 музыка BDRip 1080p от ExKinoRay] $-DRON-$ Скачать
1 | 0
Наши новые фильмы 2015 [ 1.46 GB ] Самый лучший день [2015 музыка WEB-DLRip Оригинальный Twi7ter Скачать
2 | 0
Наши новые фильмы 2015 [ 2.18 GB ] Самый лучший день [2015 музыка BDRip-AVC] potroks Скачать
2 | 0
Наши новые фильмы 2015 [ 2.17 GB ] Самый лучший день [2015 музыка HDRip Оригинальный ""] coc900 Скачать
1 | 0
Наши фильмы (Blu-ray, BD-Remux, HDDVD) [ 19.72 GB ] Самый лучший день [2015 музыка Blu-ray] Russian Mafia Скачать
1 | 0

28-11-2019 20:33  

Отключить всю рекламу на сайте

22-02-2016 15:22 Самый лучший день Скачать торрент  

Весь фильм улыбалась... времени не жалко. Много позитива. Советуюpb.wtf



25-02-2016 20:59 Самый лучший день Скачать торрент  

Зачет pb.wtf



25-02-2016 21:10 Самый лучший день Скачать торрент  

Позитив. Рекомендовано к просмотру.pb.wtf



05-03-2016 19:06 Самый лучший день Скачать торрент  

спасибо за раздачуpb.wtf



06-03-2016 14:14 Самый лучший день Скачать торрент  

если честно полная ерунда!актеры хорошие а сюжет фуфел!!!жаль!pb.wtf



08-03-2016 11:35 Самый лучший день Скачать торрент  

Фильм разочаровал,юмора почти нет.Нагиев играет хорошо,только из-за него смотрел.pb.wtf



10-03-2016 07:06 Самый лучший день Скачать торрент  

я переживаю за душевное состояние тех, кто сказал, что фильм - "зачет"!pb.wtf



10-03-2016 12:55 Самый лучший день Скачать торрент  

там за умственное состояние надо переживать...pb.wtf



10-03-2016 16:57 Самый лучший день Скачать торрент  

фильм от дегенерато для себе подобных. как такие редкие фикалии могут отбивать свои деньги да еще и зарабатывать не мало?pb.wtf



10-03-2016 16:59 Самый лучший день Скачать торрент  

самое лучшее ДНО!фильм для тупой гопоты и старух...pb.wtf



11-03-2016 12:21 Самый лучший день Скачать торрент  

Как можно смеяться над такой комедией? А сюжет, вы концовку сами видели? Главная героине изменил жених, причём это публично и он сам признался в этом, а она в конце его прощает - "Ладно, прощаю!"
Наверно это говорит о многом....pb.wtf



21-03-2016 16:08 Самый лучший день Скачать торрент  

Гуд писал(а):

фильм от дегенерато для себе подобных. как такие редкие фикалии могут отбивать свои деньги да еще и зарабатывать не мало?

ну ты сам назвал аудиторию, на которой создатели и зарабатывают деньги, даже в этой раздаче нашлись те, которому это понравилось :)pb.wtf



19-04-2016 15:37 Самый лучший день Скачать торрент  

Хороший фильм, на мой вкус, для нашего кино так вообще отличный. С удовольствием бы сходил на него в кинотеатр, да вот не поверил, что наше кино может доставить приятные эмоции.pb.wtf



19-04-2016 15:54 Самый лучший день Скачать торрент  

Понравилась только музыка. Нагиеву желаю и в дальнейшем сниматься только в рекламе мтс или каких-нибудь прокладок. Бездарность косоглазая.pb.wtf



    Дорогой пользователь! Огромная просьба, поблагодарите релизера, оцените раздачу и оставьте свои комментарий, если Вы скачали Самый лучший день через торрент бесплатно! Внесите свою лепту в развитие PiratBit!
    Комментировать посты могут только пользователи прошедшие не сложную регистрацию
    Показать сообщения:    

    Самый лучший день через торрент
    Скачать бесплатно Самый лучший день
    Самый лучший день скачать торрент
    Самый лучший день смотреть онлайн
    Cкачать фильм Самый лучший день бесплатно
    Самый лучший день скачать торрент в хорошем качестве
    Самый лучший день смотреть онлайн бесплатно в хорошем качестве


    Вы не можете начинать темы
    Вы не можете отвечать на сообщения
    Вы не можете редактировать свои сообщения
    Вы не можете удалять свои сообщения
    Вы не можете голосовать в опросах
    Вы не можете прикреплять файлы к сообщениям
    Вы можете скачивать файлы