2 сезон

iTunes

1 сезон

1

iTunes

iTunes

iTunes

1 сезон

RePack

30

ИГРА 18+

pack

ВАЖНО

!!Акция!!

Alien_RageХит недели

RePack

MK11
pack

Забери бонус

RePack

jed

!!Акция!!

Alien_Rage

RePack

fifa19

RePack

Assassins Creed: Odyssey

RePack

NEED FOR SPEED™ PAYBACK

4 сезон

9 сезон

Бесстыжие 9 сезон

Все сериалы

все сериалы на PB.wtf

RePack

FAR CRY 5
  

Связанные насмерть / Dead Ringers (Дэвид Кроненберг) [1988, триллер, драма, BDRip 720p by msltel] MVO, AVO pb.wtf

Связанные насмерть через торрент pb.wtf

Размер: 5.33 GB | Добавлен: 4 года 8 мес. назад | Торрент скачан:26 раз
Скачать  

19-02-2016 10:58 Связанные насмерть Скачать торрент  

Название: Связанные насмерть
Оригинальное название: Dead Ringers
Год выпуска: 1988
Страна: Канада, США
Жанр: триллер, драма
Продолжительность: 01:50:59
Перевод: профессиональный многоголосый, авторский

Режиссёр: Дэвид Кроненберг

В ролях: Джереми Айронс, Женевьев Бюжо, Хайди фон Паллеске, Барбара Гордон, Ширли Дуглас, Стивен Лэк, Ник Николс, Линн Кормэк, Дамир Андрей, Мириам Ньюхаус, Дэвид Хьюз, Ричард В. Фаррелл, Уоррен Дэвис, Джонатан Хейли, Николас Хейли, Марша Моро, Деннис Акаяма, Ди МакКафферти, Сьюзэн Маркл, Мюррэй Крачли, Джейн Люк, Тита Тревизан, Жаклин Хеннесси, Джилл Хеннесси, Дэвид Уолден, Лилиан Стиллвелл, Денис МакЛеод, Боб Быйнраф, Ник Райс, Джо Мэтисон, Хэдли Кэй, Синтия Истмэн, Нора Колпмэн, Дэвид Кроненберг

Описание: Два тела. Два разума. Одна душа. Братья Мэнтл — абсолютно идентичные близнецы. Оба они врачи и работают вместе. Эллиот искусней Бева в деле соблазнения женщин и охотно «дарит» брату своих любовниц, которые и не подозревают о подмене. Но когда их клинику посещает кинозвезда Клэр, застенчивый Бев влюбляется в неё первым. Клэр, сама того не ведая, начинает встречаться с обоими братьями. Смогут ли они поделить любимую женщину или, пытаясь найти утешение в наркотиках и алкоголе, погрузятся в пучину безумия?...



Качество: BDRip 720p Сравнение с исходником
Формат: MKV
Видео: MPEG-4 AVC, 6303 Кбит/с, 1280x720, 25 кадра/с
Аудио 1: русский, AC3, 192 kbps, 2 ch, 48 kHz [профессиональный многоголосый]
Аудио 2: русский, AC3, 192 kbps, 2 ch, 48 kHz [авторский, Алексей Михалёв]
Аудио 3: английский, AC3, 192 kbps, 2 ch, 48 kHz [оригинал]
Субтитры 1: русские
Субтитры 2: английские (для слабослышащих)
Общее
Уникальный идентификатор : 177214297568182747575574280169263607358 (0x85523B7329F3ED84A965FFEE7EFE2E3E)
Полное имя : D:\Video\Связанные насмерть.1988.BDRip.720p.mkv
Формат : Matroska
Версия формата : Version 4 / Version 2
Размер файла : 5,33 Гбайт
Продолжительность : 1 ч. 50 м.
Общий поток : 6882 Кбит/сек
Дата кодирования : UTC 2016-02-19 09:10:43
Программа кодирования : mkvmerge v8.2.0 ('World of Adventure') 64bit
Библиотека кодирования : libebml v1.3.1 + libmatroska v1.4.2

Видео
Идентификатор : 1
Формат : AVC
Формат/Информация : Advanced Video Codec
Профиль формата : High@L4.1
Параметр CABAC формата : Да
Параметр ReFrames формата : 9 кадров
Идентификатор кодека : V_MPEG4/ISO/AVC
Продолжительность : 1 ч. 50 м.
Битрейт : 6303 Кбит/сек
Ширина : 1280 пикселей
Высота : 720 пикселей
Соотношение сторон : 16:9
Режим частоты кадров : Постоянный
Частота кадров : 25,000 кадров/сек
Цветовое пространство : YUV
Субдискретизация насыщенности : 4:2:0
Битовая глубина : 8 бит
Тип развёртки : Прогрессивная
Бит/(Пиксели*Кадры) : 0.274
Размер потока : 4,89 Гбайт (92%)
Библиотека кодирования : x264 core 146 r2538 121396c
Настройки программы : cabac=1 / ref=9 / deblock=1:-3:-3 / analyse=0x3:0x113 / me=umh / subme=10 / psy=1 / psy_rd=1.00:0.15 / mixed_ref=1 / me_range=32 / chroma_me=1 / trellis=2 / 8x8dct=1 / cqm=0 / deadzone=21,11 / fast_pskip=1 / chroma_qp_offset=-3 / threads=6 / lookahead_threads=1 / sliced_threads=0 / nr=0 / decimate=1 / interlaced=0 / bluray_compat=0 / constrained_intra=0 / bframes=14 / b_pyramid=2 / b_adapt=2 / b_bias=0 / direct=1 / weightb=1 / open_gop=0 / weightp=2 / keyint=250 / keyint_min=25 / scenecut=40 / intra_refresh=0 / rc_lookahead=40 / rc=crf / mbtree=0 / crf=18.6 / qcomp=0.60 / qpmin=0 / qpmax=69 / qpstep=4 / vbv_maxrate=40000 / vbv_bufsize=50000 / crf_max=0.0 / nal_hrd=none / filler=0 / ip_ratio=1.40 / pb_ratio=1.30 / aq=1:1.00
Язык : English
Default : Да
Forced : Нет

Аудио #1
Идентификатор : 2
Формат : AC-3
Формат/Информация : Audio Coding 3
Расширение режима : CM (complete main)
Параметр Endianness формата : Big
Идентификатор кодека : A_AC3
Продолжительность : 1 ч. 50 м.
Вид битрейта : Постоянный
Битрейт : 192 Кбит/сек
Каналы : 2 канала
Расположение каналов : Front: L R
Частота : 48,0 КГц
Частота кадров : 31,250 кадров/сек (1536 spf)
Метод сжатия : С потерями
Размер потока : 152 Мбайт (3%)
Заголовок : MVO
Язык : Russian
Default : Да
Forced : Нет

Аудио #2
Идентификатор : 3
Формат : AC-3
Формат/Информация : Audio Coding 3
Расширение режима : CM (complete main)
Параметр Endianness формата : Big
Идентификатор кодека : A_AC3
Продолжительность : 1 ч. 50 м.
Вид битрейта : Постоянный
Битрейт : 192 Кбит/сек
Каналы : 2 канала
Расположение каналов : Front: L R
Частота : 48,0 КГц
Частота кадров : 31,250 кадров/сек (1536 spf)
Метод сжатия : С потерями
Размер потока : 152 Мбайт (3%)
Заголовок : AVO (Алексей Михалёв)
Язык : Russian
Default : Нет
Forced : Нет

Аудио #3
Идентификатор : 4
Формат : AC-3
Формат/Информация : Audio Coding 3
Расширение режима : CM (complete main)
Параметр Endianness формата : Big
Идентификатор кодека : A_AC3
Продолжительность : 1 ч. 50 м.
Вид битрейта : Постоянный
Битрейт : 192 Кбит/сек
Каналы : 2 канала
Расположение каналов : Front: L R
Частота : 48,0 КГц
Частота кадров : 31,250 кадров/сек (1536 spf)
Метод сжатия : С потерями
Размер потока : 152 Мбайт (3%)
Заголовок : Original
Язык : English
Default : Нет
Forced : Нет

Текст #1
Идентификатор : 5
Формат : UTF-8
Идентификатор кодека : S_TEXT/UTF8
Идентификатор кодека/Информация : UTF-8 Plain Text
Продолжительность : 1 ч. 45 м.
Битрейт : 64 бит/сек
Count of elements : 842
Размер потока : 50,1 Кбайт (0%)
Заголовок : Русский
Язык : Russian
Default : Нет
Forced : Нет

Текст #2
Идентификатор : 6
Формат : UTF-8
Идентификатор кодека : S_TEXT/UTF8
Идентификатор кодека/Информация : UTF-8 Plain Text
Продолжительность : 1 ч. 43 м.
Битрейт : 60 бит/сек
Count of elements : 1284
Размер потока : 46,1 Кбайт (0%)
Заголовок : английский (для слабослышащих)
Язык : English
Default : Нет
Forced : Нет
pb.wtf



Скачать Связанные насмерть через торрент http://i024.radikal.ru/1602/96/f0d9d9d4723a.jpg Скачать фильм Связанные насмерть через торрент бесплантно в хорошем качестве Описание: Два тела. Два разума. Одна душа. Братья Мэнтл — абсолютно идентичные близнецы. Оба они врачи и работают вместе. Эллиот искусней ... 2 10 1
Info! Золотая раздача, скачанное не засчитывается.
Торрент: Зарегистрирован [2016-02-19 10:58] · скачан: 26 раз
Статус: √ проверено
Размер: 5.33 GB
Как cкачать? Как скачать Связанные насмерть через торрент | qTorrent

% Раздел Тема Автор DL S | L
Фильмы [HD 720p, 1080p] (Хороший звук DUB, MVO) [ 15.42 GB ] Связанные насмерть / Dead Ringers [1988 BDRip 1080p by msltel] MVO AVO msltel Скачать
1 | 0

28-11-2019 20:33  

Отключить всю рекламу на сайте

    Дорогой пользователь! Огромная просьба, поблагодарите релизера, оцените раздачу и оставьте свои комментарий, если Вы скачали Связанные насмерть через торрент бесплатно! Внесите свою лепту в развитие PiratBit!
    Комментировать посты могут только пользователи прошедшие не сложную регистрацию
    Показать сообщения:    

    Связанные насмерть через торрент
    Скачать бесплатно Связанные насмерть
    Связанные насмерть скачать торрент
    Связанные насмерть смотреть онлайн
    Cкачать фильм Связанные насмерть бесплатно
    Связанные насмерть скачать торрент в хорошем качестве
    Связанные насмерть смотреть онлайн бесплатно в хорошем качестве


    Вы не можете начинать темы
    Вы не можете отвечать на сообщения
    Вы не можете редактировать свои сообщения
    Вы не можете удалять свои сообщения
    Вы не можете голосовать в опросах
    Вы не можете прикреплять файлы к сообщениям
    Вы можете скачивать файлы