Ссылка на приватное зеркало всего за 1$. Внимание количество ограничено!!!

OK

1+1

iTunes

мы

OK

1

WEB-DLRip

Джокер

Пифагор

Ведьмак / The Witcher сериал

iTunes

ПШазам

ОК

Оно 2

iTunes

30
pack

Вам бонус

ВАЖНО

!!Акция!!

Alien_RageХит недели

RePack

Resident Evil 21

ИГРА 18+

pack

RePack

jed

RePack

fifa19

RePack

Assassins Creed: Odyssey

RePack

NEED FOR SPEED™ PAYBACK

4 сезон

9 сезон

Бесстыжие 9 сезон

Все сериалы

все сериалы на PB.wtf

RePack

FAR CRY 5
  

Ультраамериканцы / American Ultra (Нима Нуризаде / Nima Nourizadeh) [2015, боевик, комедия, BDRip-AVC от potroks] DUB Лицензия pb.wtf

Ультраамериканцы через торрент pb.wtf

Размер: 2.18 GB | Добавлен: 3 года 10 мес. назад | Торрент скачан:209 раз
Скачать  

19-02-2016 18:40 Ультраамериканцы Скачать торрент  

Ультраамериканцы / American Ultra
«Нет ничего опаснее обкуренного киллера с амнезией»
Год выпуска: 2015
Страна: США, Швейцария / Likely Story, Palm-Star Entertainment, Circle of Confusion...
Жанр: боевик, комедия
Продолжительность: 01:35:41
Перевод: Дубляж [BD RUS]
Субтитры: русские (А.Матвеев), английские (Full), английские (SDH), английские (SDH-Colored)
Навигация по главам: есть
Режиссер: Нима Нуризаде / Nima Nourizadeh
В ролях:

Джесси Айзенберг (Mike Howell), Кристен Стюарт (Phoebe Larson), Тофер Грейс (Adrian Yates), Конни Бриттон (Victoria Lasseter), Уолтон Гоггинс (Laugher), Джон Легуизамо (Rose), Билл Пуллман (Krueger), Тони Хейл (Petey Douglas), Стюарт Грир (Sheriff Watts), Майкл Пападжон (Otis), Моник Гэндертон (Crane), Нэш Эдгертон (Beedle)
Описание: А вдруг ты тоже спецагент, обладающий уникальной боевой подготовкой и сверхинтеллектом? Но просто ты забыл об этом... Как Майк Хоуэлл, лоботряс из супермаркета, который безмятежно читает комиксы и курит дурь пока славное прошлое не настигает его. И обдолбанный агент N1 становится мишенью N1.

Качество: BDRip-AVC
Формат: MKV
Видео кодек: AVC
Аудио кодек: AC3
Видео: 1024x552 (1.852), 2367 kbps, 23,976 fps, 0.175 bit/pixel
Аудио#1: AC3 / 5.1 / 48 kHz / 448 kbps / 16 bit | RUS
Аудио#2: AC3 / 5.1 / 48 kHz / 448 kbps / 16 bit | ENG

Релиз группы:
Автор рипа: potroks

Код:

Общее
Уникальный идентификатор : 208280053068951398885625911797491408180 (0x9CB147734158546DB9D2DC866EA79D34)
Полное имя : Ul'traamerikantcy.2015.TRIPLE.BDRip.x264.-HELLYWOOD.mkv
Формат : Matroska
Версия формата : Version 4 / Version 2
Размер файла : 2,18 Гбайт
Продолжительность : 1 ч. 35 м.
Общий поток : 3260 Кбит/сек
Название фильма : American Ultra (2015) - HELLYWOOD
Дата кодирования : UTC 2016-02-28 06:11:36
Программа кодирования : mkvmerge v5.9.0 ('On The Loose') built on Dec 15 2012 16:39:58
Библиотека кодирования : libebml v1.3.0 + libmatroska v1.4.0

Видео
Идентификатор : 1
Формат : AVC
Формат/Информация : Advanced Video Codec
Профиль формата : High@L4.1
Параметр CABAC формата : Да
Параметр ReFrames формата : 11 кадров
Идентификатор кодека : V_MPEG4/ISO/AVC
Продолжительность : 1 ч. 35 м.
Битрейт : 2367 Кбит/сек
Ширина : 1024 пикселя
Высота : 552 пикселя
Соотношение сторон : 1,85:1
Режим частоты кадров : Постоянный
Частота кадров : 23,976 кадра/сек
Цветовое пространство : YUV
Субдискретизация насыщенности : 4:2:0
Битовая глубина : 8 бит
Тип развёртки : Прогрессивная
Бит/(Пиксели*Кадры) : 0.175
Размер потока : 1,54 Гбайт (71%)
Заголовок : potroks
Библиотека кодирования : x264 core 128 r2216M 198a7ea
Настройки программы : cabac=1 / ref=12 / deblock=1:-2:-2 / analyse=0x3:0x133 / me=umh / subme=11 / psy=1 / psy_rd=1.00:0.05 / mixed_ref=1 / me_range=48 / chroma_me=1 / trellis=2 / 8x8dct=1 / cqm=0 / deadzone=21,11 / fast_pskip=0 / chroma_qp_offset=-3 / threads=10 / lookahead_threads=1 / sliced_threads=0 / nr=0 / decimate=1 / interlaced=0 / bluray_compat=0 / constrained_intra=0 / bframes=13 / b_pyramid=1 / b_adapt=2 / b_bias=0 / direct=3 / weightb=1 / open_gop=0 / weightp=2 / keyint=250 / keyint_min=23 / scenecut=40 / intra_refresh=0 / rc_lookahead=40 / rc=2pass / mbtree=0 / bitrate=2367 / ratetol=1.0 / qcomp=0.70 / qpmin=0 / qpmax=69 / qpstep=4 / cplxblur=20.0 / qblur=0.5 / vbv_maxrate=62500 / vbv_bufsize=62500 / nal_hrd=none / ip_ratio=1.40 / pb_ratio=1.30 / aq=1:0.80
Язык : English
Default : Да
Forced : Нет

Аудио #1
Идентификатор : 2
Формат : AC-3
Формат/Информация : Audio Coding 3
Расширение режима : CM (complete main)
Параметр Endianness формата : Big
Идентификатор кодека : A_AC3
Продолжительность : 1 ч. 35 м.
Вид битрейта : Постоянный
Битрейт : 448 Кбит/сек
Каналы : 6 каналов
Расположение каналов : Front: L C R, Side: L R, LFE
Частота : 48,0 КГц
Метод сжатия : С потерями
Размер потока : 307 Мбайт (14%)
Заголовок : Dub | DD 5.1 @ 448 kbps - Blu-Ray RUS
Язык : Russian
Default : Да
Forced : Нет

Аудио #2
Идентификатор : 3
Формат : AC-3
Формат/Информация : Audio Coding 3
Расширение режима : CM (complete main)
Параметр Endianness формата : Big
Идентификатор кодека : A_AC3
Продолжительность : 1 ч. 35 м.
Вид битрейта : Постоянный
Битрейт : 448 Кбит/сек
Каналы : 6 каналов
Расположение каналов : Front: L C R, Side: L R, LFE
Частота : 48,0 КГц
Метод сжатия : С потерями
Размер потока : 307 Мбайт (14%)
Заголовок : Original | DD 5.1 @ 448 kbps
Язык : English
Default : Нет
Forced : Нет

Текст #1
Идентификатор : 4
Формат : UTF-8
Идентификатор кодека : S_TEXT/UTF8
Идентификатор кодека/Информация : UTF-8 Plain Text
Заголовок : A.Matveev (+18)
Язык : Russian
Default : Нет
Forced : Нет

Текст #2
Идентификатор : 5
Формат : UTF-8
Идентификатор кодека : S_TEXT/UTF8
Идентификатор кодека/Информация : UTF-8 Plain Text
Заголовок : Full
Язык : English
Default : Нет
Forced : Нет

Текст #3
Идентификатор : 6
Формат : UTF-8
Идентификатор кодека : S_TEXT/UTF8
Идентификатор кодека/Информация : UTF-8 Plain Text
Заголовок : SDH
Язык : English
Default : Нет
Forced : Нет

Текст #4
Идентификатор : 7
Формат : UTF-8
Идентификатор кодека : S_TEXT/UTF8
Идентификатор кодека/Информация : UTF-8 Plain Text
Заголовок : SDH-Colored
Язык : English
Default : Нет
Forced : Нет

Меню
00:00:00.000 : en:(01)00:00:00:000
00:03:47.727 : en:(02)00:03:47:727
00:09:28.985 : en:(03)00:09:28:985
00:16:40.581 : en:(04)00:16:40:581
00:22:15.916 : en:(05)00:22:15:916
00:26:45.979 : en:(06)00:26:45:979
00:33:28.631 : en:(07)00:33:28:631
00:37:54.230 : en:(08)00:37:54:230
00:42:31.047 : en:(09)00:42:31:047
00:48:55.849 : en:(10)00:48:55:849
00:55:13.393 : en:(11)00:55:13:393
01:00:11.273 : en:(12)01:00:11:273
01:06:12.300 : en:(13)01:06:12:300
01:10:14.667 : en:(14)01:10:14:667
01:18:38.921 : en:(15)01:18:38:921
01:25:14.692 : en:(16)01:25:14:692

pb.wtf



Скачать Ультраамериканцы через торрент http://i74.fastpic.ru/big/2016/0213/c7/6538c0c2bed3fa805775572388ef15c7.png Скачать фильм Ультраамериканцы через торрент бесплантно в хорошем качестве Описание: А вдруг ты тоже спецагент, обладающий уникальной боевой подготовкой и сверхинтеллектом? Но просто ты забыл об этом... Как Майк ... 7.7 10 19
Info! Золотая раздача, скачанное не засчитывается.
Торрент: Зарегистрирован [2016-02-28 06:21] · скачан: 209 раз
Статус: √ проверено
Размер: 2.18 GB
Как cкачать? Как скачать Ультраамериканцы через торрент | qTorrent

% Раздел Тема Автор DL S | L
Фильмы 2015 [DVDrip, WEB-DLRip, HDrip] [ 2.18 GB ] Ультраамериканцы / American Ultra [2015 Швейцария BDRip-AVC от sokol_ok] DUB sokol_ok Скачать
2 | 0
Фильмы 2015 [DVDrip, WEB-DLRip, HDrip] [ 1.46 GB ] Ультраамериканцы / American Ultra [2015 Швейцария BDRip-AVC от sokol_ok] DUB sokol_ok Скачать
3 | 0
Фильмы 2015 [DVDrip, WEB-DLRip, HDrip] [ 1.46 GB ] Ультраамериканцы / American Ultra [2015 BDRip-AVC] DUB potroks Скачать
2 | 0
Фильмы 2015 [DVDrip, WEB-DLRip, HDrip] [ 1.37 GB ] Ультраамериканцы / American Ultra [2015 HDRip] killermax2013 Скачать
1 | 0

28-11-2019 20:33  

Отключить всю рекламу на сайте

28-02-2016 15:32 Ультраамериканцы Скачать торрент  

такой хороший фильмец-не ожидал-спасибоpb.wtf



    Дорогой пользователь! Огромная просьба, поблагодарите релизера, оцените раздачу и оставьте свои комментарий, если Вы скачали Ультраамериканцы через торрент бесплатно! Внесите свою лепту в развитие PiratBit!
    Комментировать посты могут только пользователи прошедшие не сложную регистрацию
    Показать сообщения:    

    Ультраамериканцы через торрент
    Скачать бесплатно Ультраамериканцы
    Ультраамериканцы скачать торрент
    Ультраамериканцы смотреть онлайн
    Cкачать фильм Ультраамериканцы бесплатно
    Ультраамериканцы скачать торрент в хорошем качестве
    Ультраамериканцы смотреть онлайн бесплатно в хорошем качестве


    Вы не можете начинать темы
    Вы не можете отвечать на сообщения
    Вы не можете редактировать свои сообщения
    Вы не можете удалять свои сообщения
    Вы не можете голосовать в опросах
    Вы не можете прикреплять файлы к сообщениям
    Вы можете скачивать файлы