1 сезон

3 сезон

iTunes

1

Line

MVO

iTunes

13

1 сезон

RePack

30

Deluxe

pack

Лицензия

ВАЖНО

ИГРА 18+

pack

RePack

MK11

RePack

jed

RePack

fifa19

RePack

RDR2

RePack

NEED FOR SPEED™ PAYBACK

4 сезон

9 сезон

Бесстыжие 9 сезон

Все сериалы

все сериалы на PB.wtf

RePack

FAR CRY 5

Anonymous, доброй ночи, мы катастрофически не успеваем собрать деньги на оплату серверов, помогите нам пожалуйста 5,10,15р., для нас важна любая помощь . В качестве благодарности мы отключим Вам всю рекламу на сайте (укажите свой ник в строку Ваше имя)!

×
  
Magnet ссылка

Ночь в старой Мексике / A Night in Old Mexico (Эмилио Арагон) [2013, драма, BDRip-AVC, Авторский (одноголосый) Ю.Живов] R.G.Resident pb.wtf

Ночь в старой Мексике через торрент pb.wtf

Размер: 1.46 GB | Добавлен: 5 лет 5 мес. назад | Торрент скачан:18 раз
Скачать  

20-02-2016 06:55 Ночь в старой Мексике Скачать торрент  

Ночь в старой Мексике / A Night in Old Mexico
Год выпуска: 2013
Страна: Испания, США
Жанр: драма
Продолжительность: 01:44:01
Перевод: Авторский (одноголосый) Ю.Живов
Режиссер: Эмилио Арагон
В ролях:

Роберт Дювалл (Red), Джереми Ирвин (Gally), Энджи Сепеда (Patty Wafers), Луис Тосар (Panamá), Хоакин Косио (Cholo), Хавьер Гутьеррес (Booster), Рене Ри (Driver), Джим Пэррак (Moon), Джеймс Хеберт (J.T.), Майкл Рэй Эскамиллья (Hector), Абрахам Бенруби (Big Roscoe Hammil), Ck McFarland (Inez Claypeck)
Описание:
Вынужденный отказаться от своего ранчо и земли Ред Боуви, вместо того чтобы остепениться на старости лет, прыгает в свой Кадиллак и мчится в Мексику вместе со своим внуком Галли, которого он только что повстречал...
Мировая премьера: 8 ноября 2013

Качество: BDRip-AVC Rip by schultz R.G.Resident
Формат: MKV
Видео: AVC, 1024x430 (2.40:1), 1559 kbps, 23,976 fps, 0,148 bpp
Аудио: русский / AC3 / 5.1 / 48 kHz / 448 kbps / 16 bit

Код:

General
Unique ID                                : 173574990914209315318397746759061374196 (0x829553C74D0DDFE49FE4AFC90A8284F4)
Complete name                            : D:\download\A.Night.in.Old.Mexico.2013.BDRip-AVC by schultz R.G.Resident.mkv
Format                                   : Matroska
Format version                           : Version 2
File size                                : 1.46 GiB
Duration                                 : 1h 44mn
Overall bit rate                         : 2 008 Kbps
Encoded date                             : UTC 2016-02-20 00:44:27
Writing application                      : mkvmerge v7.8.0 ('River Man') 32bit built on Apr  3 2015 12:11:22
Writing library                          : libebml v1.3.1 + libmatroska v1.4.2

Video
ID                                       : 1
Format                                   : AVC
Format/Info                              : Advanced Video Codec
Format profile                           : High@L4.1
Format settings, CABAC                   : Yes
Format settings, ReFrames                : 12 frames
Codec ID                                 : V_MPEG4/ISO/AVC
Duration                                 : 1h 44mn
Bit rate                                 : 1 559 Kbps
Width                                    : 1 024 pixels
Height                                   : 430 pixels
Display aspect ratio                     : 2.40:1
Frame rate                               : 23.976 fps
Color space                              : YUV
Chroma subsampling                       : 4:2:0
Bit depth                                : 8 bits
Scan type                                : Progressive
Bits/(Pixel*Frame)                       : 0.148
Stream size                              : 1.10 GiB (76%)
Writing library                          : x264 core 146 r2538 121396c
Encoding settings                        : cabac=1 / ref=12 / deblock=1:-3:-3 / analyse=0x3:0x113 / me=umh / subme=11 / psy=1 / psy_rd=1.00:0.00 / mixed_ref=1 / me_range=48 / chroma_me=1 / trellis=2 / 8x8dct=1 / cqm=0 / deadzone=21,11 / fast_pskip=0 / chroma_qp_offset=-2 / threads=12 / lookahead_threads=3 / sliced_threads=0 / nr=0 / decimate=1 / interlaced=0 / bluray_compat=0 / constrained_intra=0 / bframes=13 / b_pyramid=2 / b_adapt=2 / b_bias=0 / direct=3 / weightb=1 / open_gop=0 / weightp=2 / keyint=240 / keyint_min=23 / scenecut=40 / intra_refresh=0 / rc_lookahead=40 / rc=2pass / mbtree=1 / bitrate=1559 / ratetol=1.0 / qcomp=0.60 / qpmin=0 / qpmax=69 / qpstep=4 / cplxblur=20.0 / qblur=0.5 / vbv_maxrate=14000 / vbv_bufsize=14000 / nal_hrd=none / filler=0 / ip_ratio=1.40 / aq=1:1.00
Default                                  : Yes
Forced                                   : No

Audio
ID                                       : 2
Format                                   : AC-3
Format/Info                              : Audio Coding 3
Mode extension                           : CM (complete main)
Codec ID                                 : A_AC3
Duration                                 : 1h 44mn
Bit rate mode                            : Constant
Bit rate                                 : 448 Kbps
Channel(s)                               : 6 channels
Channel positions                        : Front: L C R, Side: L R, LFE
Sampling rate                            : 48.0 KHz
Bit depth                                : 16 bits
Compression mode                         : Lossy
Stream size                              : 333 MiB (22%)
Language                                 : Russian
Default                                  : Yes
Forced                                   : No


pb.wtf



Скачать Ночь в старой Мексике через торрент https://pic1.kartinco.top/images/10/ejpqs.jpg Скачать фильм Ночь в старой Мексике через торрент бесплантно в хорошем качестве Описание: Вынужденный отказаться от своего ранчо и земли Ред Боуви, вместо того чтобы остепениться на старости лет, прыгает в свой Кадиллак ... 10 10 1
Info! Золотая раздача, скачанное не засчитывается.
Торрент: Зарегистрирован [2016-02-20 06:55] · скачан: 18 раз
Статус: √ проверено
Размер: 1.46 GB
Как cкачать? Как скачать Ночь в старой Мексике через торрент | UTorrent

28-11-2019 20:33  

Отключить всю рекламу на сайте

    Дорогой пользователь! Огромная просьба, поблагодарите релизера, оцените раздачу и оставьте свои комментарий, если Вы скачали Ночь в старой Мексике через торрент бесплатно! Внесите свою лепту в развитие PiratBit!
    Комментировать посты могут только пользователи прошедшие не сложную регистрацию
    Показать сообщения:    

    Ночь в старой Мексике через торрент
    Скачать бесплатно Ночь в старой Мексике
    Ночь в старой Мексике скачать торрент
    Ночь в старой Мексике смотреть онлайн
    Cкачать фильм Ночь в старой Мексике бесплатно
    Ночь в старой Мексике скачать торрент в хорошем качестве
    Ночь в старой Мексике смотреть онлайн бесплатно в хорошем качестве


    Вы не можете начинать темы
    Вы не можете отвечать на сообщения
    Вы не можете редактировать свои сообщения
    Вы не можете удалять свои сообщения
    Вы не можете голосовать в опросах
    Вы не можете прикреплять файлы к сообщениям
    Вы можете скачивать файлы