Достать ножи: Стеклянная луковица

MVO

Добыча

Дубляж

Уэнсдэй

1 сезон

Тор

Дубляж

13 клиническая

1 сезон

Жестокая ночь

MVO

Одни из нас

1 сезон

Deluxe

pack

Рекомендуем

30

Пиратка

ВАЖНО

ВАЖНО

Ghostwire

Пиратка

jed

RePack

nioh2

RePack

RDR2

RePack

NEED FOR SPEED™ PAYBACK

RePack

скачать торрент

Кинопоиск HD

Острые козырьки 6 сезон

6 сезон

FAR CRY 6

RePack

скачать торрент

Лицензия

скачать торрент

MVO

1

1 сезон

скачать торрент

1 сезон

скачать торрент

Лицензия

  

Слуга двух господ (Адольф Бергункер) [1953, СССР, комедия, DVDRip от AVP Studio]

Слуга двух господ через торрент pb.wtf

Размер: 746 MB | Добавлен: 6 лет 11 мес. назад | Торрент скачан:15 раз
Смотреть онлайн | Скачать | Поддержите нас   

20-02-2016 08:47 Слуга двух господ Скачать торрент  

Слуга двух господ
Страна: СССР
Производство: Ленфильм

Жанр: комедия
Год выпуска: 1953
Продолжительность: 01:41:27

Перевод: Не требуется
Cубтитры: нет
Оригинальная аудиодорожка: русский

Режиссер: Адольф Бергункер

В ролях:
Михаил Иванов, Иван Пальму, Людмила Макарова, Борис Рыжухин, Лев Семёнов, Ирина Ефремова (IV), Владислав Стржельчик, Дмитрий Бронев, Ольга Овчаренко...
Полный список актёров

Описание:
Фильм-спектакль Ленинградского Большого драматического театра им. Горького по одноименной пьесе Карло Гольдони.
Молодой туринец, убив на поединке брата своей возлюбленной Беатриче, вынужден бежать из города. Переодевшись в мужское платье, Беатриче отправляется на поиски беглеца. Приехав в Венецию, она нанимает слугу Труффальдино, который одновременно поступает на службу к некоему богатому туринцу. После ряда забавных приключений влюбленные находят друг друга.

Источник: DVD5 R5
Качество видео: DVDRip
Формат видео: AVI

Видео: 576x432 (4:3), 25 fps, XviD ~ 890 kbps avg, 0.143 bit/pixel
Аудио: 48 kHz, MP3 2.0, 128 kbps

Раздача от:
Общее
Полное имя : Sluga.dvuh.gospod.1953.DVDRip-745_[New-team]_by_AVP_Studio.avi
Формат : AVI
Формат/Информация : Audio Video Interleave
Размер файла : 746 Мбайт
Продолжительность : 1 ч. 41 м.
Общий поток : 1028 Кбит/сек
Программа кодирования : VirtualDubMod 1.5.10.3 | www.virtualdub-fr.org || (build 2550/release)
Библиотека кодирования : VirtualDubMod build 2550/release

Видео
Идентификатор : 0
Формат : MPEG-4 Visual
Профиль формата : Advanced [email protected]
Параметр BVOP формата : 1
Параметр QPel формата : Нет
Параметр GMC формата : Без точки перехода
Параметр матрицы формата : Выборочная
Идентификатор кодека : XVID
Идентификатор кодека/Подсказка : XviD
Продолжительность : 1 ч. 41 м.
Битрейт : 890 Кбит/сек
Ширина : 576 пикселей
Высота : 432 пикселя
Соотношение сторон : 4:3
Частота кадров : 25,000 кадров/сек
Цветовое пространство : YUV
Субдискретизация насыщенности : 4:2:0
Битовая глубина : 8 бит
Тип развёртки : Прогрессивная
Метод сжатия : С потерями
Бит/(Пиксели*Кадры) : 0.143
Размер потока : 646 Мбайт (87%)
Библиотека кодирования : XviD 1.2.1 (UTC 2008-12-04)

Аудио
Идентификатор : 1
Формат : MPEG Audio
Версия формата : Version 1
Профиль формата : Layer 3
Идентификатор кодека : 55
Идентификатор кодека/Подсказка : MP3
Продолжительность : 1 ч. 41 м.
Вид битрейта : Постоянный
Битрейт : 128 Кбит/сек
Каналы : 2 канала
Частота : 48,0 КГц
Метод сжатия : С потерями
Размер потока : 92,9 Мбайт (12%)
Выравнивание : Соединение по промежуткам
Продолжительность промежутка : 40 мс. (1,00 видеокадр)
Время предзагрузки промежутка : 504 мс.
Библиотека кодирования : LAME3.99r
Настройки программы : -m s -V 4 -q 2 -lowpass 17 -b 128



Скачать Слуга двух господ через торрент http://s020.radikal.ru/i710/1602/3f/259bbdb134a4.png Скачать, смотреть онлайн Слуга двух господ бесплантно в хорошем качестве Описание:Фильм-спектакль Ленинградского Большого драматического театра им. Горького по одноименной пьесе Карло Гольдони.Молодой туринец, ... 5 10 1
Info! Золотая раздача, скачанное не засчитывается.
Торрент: Зарегистрирован [2016-02-20 08:47] · скачан: 15 раз
Статус: √ проверено
Размер: 746 MB
Как cкачать? Как скачать Слуга двух господ через торрент | UTorrent

% Раздел Тема Автор DL S | L
Кино СССР [ 1.46 GB ] Слуга двух господ | | DVDRip-AVC от AVP Studio AVP Studio Скачать
1 | 0
Кино СССР [ 1.46 GB ] Слуга двух господ | | DVDRip от AVP Studio AVP Studio Скачать
1 | 0

28-11-2019 20:33  


Отключить вcю реклaмy на сайте, в т.ч. и в плеере онлайн просмотра!

    Дорогой пользователь! Огромная просьба, поблагодарите релизера, оцените раздачу и оставьте свои комментарий, если Вы скачали Слуга двух господ через торрент бесплатно!!
    Комментировать посты могут только пользователи прошедшие не сложную регистрацию
    Показать сообщения:    


    Слуга двух господ через торрент
    Скачать бесплатно Слуга двух господ
    Слуга двух господ скачать торрент
    Слуга двух господ смотреть онлайн
    Cкачать фильм Слуга двух господ бесплатно
    Слуга двух господ скачать торрент в хорошем качестве
    Слуга двух господ смотреть онлайн бесплатно в хорошем качестве
    Вы не можете начинать темы
    Вы не можете отвечать на сообщения
    Вы не можете редактировать свои сообщения
    Вы не можете удалять свои сообщения
    Вы не можете голосовать в опросах
    Вы не можете прикреплять файлы к сообщениям
    Вы можете скачивать файлы
    Слуга двух господ [1953, СССР, комедия, DVDRip от AVP Studio] смотреть онлайн, скачать торрент picoco.icu