Ссылка на приватное зеркало нашего сайта всего за 1$. Внимание количество ограничено!!!

2 сезон

iTunes

1 сезон

1

2 сезон

2 сезон

iTunes

1 сезон

RePack

30

Ultimate

ВАЖНО

ИГРА 18+

pack

RePack

MK11
pack

Забери бонус

RePack

jed

!!Акция!!

Alien_Rage

RePack

fifa19

RePack

Assassins Creed: Odyssey

RePack

NEED FOR SPEED™ PAYBACK

4 сезон

9 сезон

Бесстыжие 9 сезон

Все сериалы

все сериалы на PB.wtf

RePack

FAR CRY 5
  

Сшиватели / Stitchers / Сезон: 1 / Серии 1-11 из 11 (Дженис Кук-Леонард, Роб Гринли, Тодд Холлэнд) [2015 г., фантастика, HDTVRip, WEB-DLRip] VO (LevshaFilm) pb.wtf

Сшиватели через торрент pb.wtf

Размер: 5.39 GB | Добавлен: 4 года 9 мес. назад | Торрент скачан:146 раз
Скачать  

20-02-2016 09:32 Сшиватели Скачать торрент  

Сшиватели / StitchersГод выпуска: 2015
Страна: США
Жанр: фантастика
Продолжительность: 11 x ~ 00:42:00
Перевод: Любительский одноголосый (LevshaFilm)
Субтитры: отсутствуют

Режиссер: Дженис Кук-Леонард, Роб Гринли, Тодд Холлэнд
В ролях: Эмма Ишта, Кайл Харрис, Сола Бэмис, Росс Курт Ле, Эллисон Скальотти, Камерон Бриттон, Ритеш Раджан, Хьюго Армстронг, Дэймон Дэйуб, Салли Ричардсон-Уитфилд

Описание: Девушка принята на работу в тайное правительственное учреждение, чтобы проникать в разум недавно умерших и использовать их воспоминания для расследования убийств и тайн, которые иначе ушли бы в могилу.



Качество: HDTVRip, WEB-DLRip
Формат: AVI
Видео кодек: XviD, DivX (11 серия)
Аудио кодек: MP3, AC3
Видео:
720x400 (16:9), 23.976 (30) fps ~ 1250-1500 Kbps (WEB-DLRip)
720x400 (16:9), 23.976 (30) fps ~ 1250-1500 Kbps (HDTVRip)
Аудио:
MP3, 44.1 KHz 2 ch ~ 128 Kb/s (1-4, 6, 9, 11 серии)
AC3, 44.1 (48) KHz 2 ch ~ 128-192 Kb/s (5, 7, 8, 10 серии)
Общее
Полное имя : Q:\TorF\Swivatel1.s01.Levsha.WEBDLRip\Swivatel1.s01e01.Levsha.WEB_DLRip.avi
Формат : AVI
Формат/Информация : Audio Video Interleave
Размер файла : 520 Мбайт
Продолжительность : 44 м.
Общий поток : 1636 Кбит/сек
Программа кодирования : VirtualDubMod 1.5.10.2 (build 2540/release)
Библиотека кодирования : VirtualDubMod build 2540/release

Видео
Идентификатор : 0
Формат : MPEG-4 Visual
Профиль формата : Advanced Simple@L5
Параметр BVOP формата : 2
Параметр QPel формата : Нет
Параметр GMC формата : Без точки перехода
Параметр матрицы формата : Выборочная
Идентификатор кодека : XVID
Идентификатор кодека/Подсказка : XviD
Продолжительность : 44 м.
Битрейт : 1499 Кбит/сек
Ширина : 720 пикселей
Высота : 400 пикселей
Соотношение сторон : 16:9
Частота кадров : 23,976 кадра/сек
Цветовое пространство : YUV
Субдискретизация насыщенности : 4:2:0
Битовая глубина : 8 бит
Тип развёртки : Прогрессивная
Метод сжатия : С потерями
Бит/(Пиксели*Кадры) : 0.217
Размер потока : 476 Мбайт (92%)
Библиотека кодирования : XviD 1.2.1 (UTC 2008-12-04)

Аудио
Идентификатор : 1
Формат : MPEG Audio
Версия формата : Version 1
Профиль формата : Layer 3
Идентификатор кодека : 55
Идентификатор кодека/Подсказка : MP3
Продолжительность : 44 м.
Вид битрейта : Постоянный
Битрейт : 128 Кбит/сек
Каналы : 2 канала
Частота : 44,1 КГц
Метод сжатия : С потерями
Размер потока : 40,7 Мбайт (8%)
Выравнивание : Разделение по промежуткам
Продолжительность промежутка : 42 мс. (1,00 видеокадр)
Время предзагрузки промежутка : 500 мс.

Общее
Полное имя : Q:\TorF\Swivatel1.s01.Levsha.WEBDLRip\Swivatel1.s01e02.Levsha.HDTVRip.avi
Формат : AVI
Формат/Информация : Audio Video Interleave
Размер файла : 493 Мбайт
Продолжительность : 41 м.
Общий поток : 1643 Кбит/сек
Программа кодирования : VirtualDubMod 1.5.10.2 (build 2540/release)
Библиотека кодирования : VirtualDubMod build 2540/release

Видео
Идентификатор : 0
Формат : MPEG-4 Visual
Профиль формата : Advanced Simple@L5
Параметр BVOP формата : 2
Параметр QPel формата : Нет
Параметр GMC формата : Без точки перехода
Параметр матрицы формата : Выборочная
Идентификатор кодека : XVID
Идентификатор кодека/Подсказка : XviD
Продолжительность : 41 м.
Битрейт : 1503 Кбит/сек
Ширина : 720 пикселей
Высота : 400 пикселей
Соотношение сторон : 16:9
Частота кадров : 30,000 кадров/сек
Цветовое пространство : YUV
Субдискретизация насыщенности : 4:2:0
Битовая глубина : 8 бит
Тип развёртки : Прогрессивная
Метод сжатия : С потерями
Бит/(Пиксели*Кадры) : 0.174
Размер потока : 451 Мбайт (91%)
Библиотека кодирования : XviD 1.2.1 (UTC 2008-12-04)

Аудио
Идентификатор : 1
Формат : MPEG Audio
Версия формата : Version 1
Профиль формата : Layer 3
Идентификатор кодека : 55
Идентификатор кодека/Подсказка : MP3
Продолжительность : 41 м.
Вид битрейта : Постоянный
Битрейт : 128 Кбит/сек
Каналы : 2 канала
Частота : 44,1 КГц
Метод сжатия : С потерями
Задержка видео : 15 мс.
Размер потока : 38,4 Мбайт (8%)
Выравнивание : Разделение по промежуткам
Продолжительность промежутка : 33 мс. (1,00 видеокадр)
Время предзагрузки промежутка : 500 мс.

Сшиватели скачать торрент

pb.wtf



Скачать Сшиватели через торрент http://pic.kartinco.top/images/11/b486z.jpg Скачать фильм Сшиватели через торрент бесплантно в хорошем качестве Описание: Девушка принята на работу в тайное правительственное учреждение, чтобы проникать в разум недавно умерших и использовать их ... 10 10 3
Info! Золотая раздача, скачанное не засчитывается.
Торрент: Зарегистрирован [2016-02-20 09:32] · скачан: 146 раз
Статус: √ проверено
Размер: 5.39 GB
Как cкачать? Как скачать Сшиватели через торрент | qTorrent



Последний раз редактировалось: PROCTOLOG (2016-02-20 16:45), всего редактировалось 1 раз

28-11-2019 20:33  

Отключить всю рекламу на сайте

20-02-2016 16:16 Сшиватели Скачать торрент  

Зделайте тех.данные и отчет МИ на оба качестваpb.wtf



21-02-2016 08:33 Сшиватели Скачать торрент  

постер отбил даже то малейшее желание смотреть, которое осталось после прочтения аннотации))).pb.wtf



    Дорогой пользователь! Огромная просьба, поблагодарите релизера, оцените раздачу и оставьте свои комментарий, если Вы скачали Сшиватели через торрент бесплатно! Внесите свою лепту в развитие PiratBit!
    Комментировать посты могут только пользователи прошедшие не сложную регистрацию
    Показать сообщения:    

    Сшиватели через торрент
    Скачать бесплатно Сшиватели
    Сшиватели скачать торрент
    Сшиватели смотреть онлайн
    Cкачать фильм Сшиватели бесплатно
    Сшиватели скачать торрент в хорошем качестве
    Сшиватели смотреть онлайн бесплатно в хорошем качестве


    Вы не можете начинать темы
    Вы не можете отвечать на сообщения
    Вы не можете редактировать свои сообщения
    Вы не можете удалять свои сообщения
    Вы не можете голосовать в опросах
    Вы не можете прикреплять файлы к сообщениям
    Вы можете скачивать файлы