Death Stranding+DLC+АВТОАКТИВАЦИЯ

iTunes

iTunes

iTunes

1

iTunes

iTunes

iTunes

iTunes

iTunes

30
pack

$ от Little Big

ВАЖНО

!!Акция!!

Alien_RageХит недели

RePack

Resident Evil 21

ИГРА 18+

pack

RePack

jed

!!Акция!!

Alien_Rage

RePack

fifa19

RePack

Assassins Creed: Odyssey

RePack

NEED FOR SPEED™ PAYBACK

4 сезон

9 сезон

Бесстыжие 9 сезон

Все сериалы

все сериалы на PB.wtf

RePack

FAR CRY 5
  

Лихорадка / Cabin Fever (Трэвис Заривны) [2016 г., ужасы, комедия, WEB-DL 720p, Любительский (одноголосый)] pb.wtf

Лихорадка через торрент pb.wtf

Размер: 3.17 GB | Добавлен: 4 года 4 мес. назад | Торрент скачан:147 раз
Скачать  

21-02-2016 03:18 Лихорадка Скачать торрент  

Лихорадка / Cabin Fever
Год выпуска: 2016
Страна: США
Жанр: ужасы, комедия
Продолжительность: 01:38:24
Перевод: Любительский (одноголосый)
Субтитры: английские

Режиссер: Трэвис Заривны
Продюссер: Ивэн Астровски, Кристофер Лемоул, Тим Заджарос
Сценарий: Рэнди Перлштейн, Элай Рот

Премьера в мире: 12 февраля 2016

IMDB


В ролях: Гейдж Голайтли, Мэттью Даддарио, Надин Крокер, Дастин Ингрэм, Сэмюэл Дэвис, Рэнди Шульман, Луиз Линтон, Элай Рот, Тереза Дечер, Лаура Кенни

Описание: История о группе из пяти выпускников, которые арендуют удаленный домик в лесу и в результате становятся жертвами ужасного вируса...

Сэмпл: http://sendfile.su/1205859

Доп. информация: Рекламные вставки

Качество: WEB-DL 720p
Формат: MKV
Видео кодек: AVC
Аудио кодек: MP3
Видео: AVC, 3 944 Кбит/сек, 1280x532, 23.976 кадр/сек
Аудио#1: MP3, 192 Кбит/сек, 2 канала, 44.1 КГц - rus[Хихикающий доктор]
Аудио#2: AC3, 384 Кбит/сек, 6 каналов, 48 КГц - eng
General
Unique ID : 198402583605481181504088674703419179806 (0x9542F29B382535B38AF07EBBC2DD031E)
Complete name : D:\Proba\Cabin.Fever.2016.720p.WEB-DL.mkv
Format : Matroska
Format version : Version 4 / Version 2
File size : 3.17 GiB
Duration : 1h 38mn
Overall bit rate : 4 611 Kbps
Movie name : Cabin.Fever.2016
Encoded date : UTC 2016-02-20 09:03:12
Writing application : mkvmerge v6.9.1 ('Blue Panther') 64bit built on Apr 18 2014 18:23:38
Writing library : libebml v1.3.0 + libmatroska v1.4.1
Attachements : cover_land.jpg / small_cover.jpg / small_cover_land.jpg / cover.jpg

Video
ID : 1
Format : AVC
Format/Info : Advanced Video Codec
Format profile : Main@L3.1
Format settings, CABAC : No
Format settings, ReFrames : 2 frames
Codec ID : V_MPEG4/ISO/AVC
Duration : 1h 38mn
Bit rate : 3 944 Kbps
Width : 1 280 pixels
Height : 532 pixels
Display aspect ratio : 2.40:1
Frame rate mode : Constant
Frame rate : 23.976 fps
Color space : YUV
Chroma subsampling : 4:2:0
Bit depth : 8 bits
Scan type : Progressive
Bits/(Pixel*Frame) : 0.242
Stream size : 2.71 GiB (86%)
Title : Cabin.Fever.2016
Language : English
Default : Yes
Forced : No
Color range : Limited
Color primaries : BT.709
Transfer characteristics : BT.709
Matrix coefficients : BT.709

Audio #1
ID : 2
Format : MPEG Audio
Format version : Version 1
Format profile : Layer 3
Codec ID : A_MPEG/L3
Codec ID/Hint : MP3
Duration : 1h 38mn
Bit rate mode : Constant
Bit rate : 192 Kbps
Channel(s) : 2 channels
Sampling rate : 44.1 KHz
Compression mode : Lossy
Stream size : 135 MiB (4%)
Title : Xixidoktor
Language : Russian
Default : Yes
Forced : No

Audio #2
ID : 3
Format : AC-3
Format/Info : Audio Coding 3
Mode extension : CM (complete main)
Format settings, Endianness : Big
Codec ID : A_AC3
Duration : 1h 38mn
Bit rate mode : Constant
Bit rate : 384 Kbps
Channel(s) : 6 channels
Channel positions : Front: L C R, Side: L R, LFE
Sampling rate : 48.0 KHz
Compression mode : Lossy
Stream size : 270 MiB (8%)
Title : original
Language : English
Default : No
Forced : No

Text
ID : 4
Format : UTF-8
Codec ID : S_TEXT/UTF8
Codec ID/Info : UTF-8 Plain Text
Language : English
Default : No
Forced : No

Menu
00:00:00.000 : en:1 / en:1
00:11:06.000 : en:2 / en:2
00:20:34.000 : en:3 / en:3
00:31:30.000 : en:4 / en:4
00:41:11.000 : en:5 / en:5
00:53:47.000 : en:6 / en:6
01:04:09.000 : en:7 / en:7
01:15:12.000 : en:8 / en:8
01:33:11.000 : en:9 / en:9

Лихорадка скачать торрент

pb.wtf



Скачать Лихорадка через торрент http://i73.fastpic.ru/big/2016/0221/88/6f09b3a9a78d3b7494e1349ac5335388.jpg Скачать фильм Лихорадка через торрент бесплантно в хорошем качестве Описание: История о группе из пяти выпускников, которые арендуют удаленный домик в лесу и в результате становятся жертвами ужасного ... 6.9 10 8
Торрент: Зарегистрирован [2016-02-21 03:18] · скачан: 147 раз
Статус: T временная
Размер: 3.17 GB
Как cкачать? Как скачать Лихорадка через торрент | qTorrent

% Раздел Тема Автор DL S | L
Фильмы без перевода [ 15.37 GB ] Лихорадка / Cabin Fever [2016 BD Remux [Оригинал] smaster Скачать
1 | 0
Фильмы без перевода [ 3.04 GB ] Лихорадка / Cabin Fever [2016 WEB-DL 720p Перевод отсутствует Оригинал] Userman4ik Скачать
1 | 0
Фильмы 2009 [ 896 MB ] Лихорадка 2: Весеннее обострение / Cabin Fever 2: Spring Fever [2009 DVDRip] war22200 Скачать
1 | 0

28-11-2019 20:33  

Отключить всю рекламу на сайте

21-02-2016 04:58 Лихорадка Скачать торрент  

это что римейк фильма 2002 года?pb.wtf



21-02-2016 05:07 Лихорадка Скачать торрент  

Bob 13 писал(а):

это что римейк фильма 2002 года?

...угу.....не понимаю зачем.....первый фильм лучший из трилогииpb.wtf



21-02-2016 06:31 Лихорадка Скачать торрент  

Размер постера не должен превышать 700 pxpb.wtf



04-03-2016 07:54 Лихорадка Скачать торрент  

Хороший фильм. PS: я не смотрел оригинал.pb.wtf



    Дорогой пользователь! Огромная просьба, поблагодарите релизера, оцените раздачу и оставьте свои комментарий, если Вы скачали Лихорадка через торрент бесплатно! Внесите свою лепту в развитие PiratBit!
    Комментировать посты могут только пользователи прошедшие не сложную регистрацию
    Показать сообщения:    

    Лихорадка через торрент
    Скачать бесплатно Лихорадка
    Лихорадка скачать торрент
    Лихорадка смотреть онлайн
    Cкачать фильм Лихорадка бесплатно
    Лихорадка скачать торрент в хорошем качестве
    Лихорадка смотреть онлайн бесплатно в хорошем качестве


    Вы не можете начинать темы
    Вы не можете отвечать на сообщения
    Вы не можете редактировать свои сообщения
    Вы не можете удалять свои сообщения
    Вы не можете голосовать в опросах
    Вы не можете прикреплять файлы к сообщениям
    Вы можете скачивать файлы