2 сезон

iTunes

1 сезон

1

iTunes

iTunes

iTunes

1 сезон

RePack

30

ИГРА 18+

pack

ВАЖНО

!!Акция!!

Alien_RageХит недели

RePack

MK11
pack

Забери бонус

RePack

jed

!!Акция!!

Alien_Rage

RePack

fifa19

RePack

Assassins Creed: Odyssey

RePack

NEED FOR SPEED™ PAYBACK

4 сезон

9 сезон

Бесстыжие 9 сезон

Все сериалы

все сериалы на PB.wtf

RePack

FAR CRY 5
  

Всё к лучшему / Серии: 1-4 из 4 (Алексей Праздников) [2015, мелодрама, SATRip-AVC] pb.wtf

Всё к лучшему через торрент pb.wtf

Размер: 2.35 GB | Добавлен: 4 года 8 мес. назад | Торрент скачан:221 раз
Скачать  

21-02-2016 10:27 Всё к лучшему Скачать торрент  

Всё к лучшему




Год выпуска: 2015
Производство: Россия, Студия «Грин Фильм» по заказу студии «Телемастер»
Жанр: мелодрама
Продолжительность: 00:43:00
Субтитры: нет




Режиссёр: Алексей Праздников



В ролях: Ольга Филиппова, Константин Соловьёв, Анастасия Чистякова (II), Ольга Сухорукова





Описание:Еще недавно жизнь Анны была вполне благополучна: на работе она считалась лучшей сотрудницей, дома заботилась о стареньком отчиме и воспитывала 15-летнего сына Костю, подающего надежды скрипача. И вдруг, в один миг все пошло прахом. С работы уволили по статье из-за интриг завистников, отчим скоропостижно скончался, не успев оставить завещание, и его родной сын Борис тут же заявил свои права на квартиру и принялся запугивать Анну.








Качество: SATRip-AVC
Формат: MKV
Видео кодек: H.264
Аудио кодек: AC3
Видео: MPEG-4 AVC, 720х400,25fps,~1700 Кбит/сек,Bits/Pixel 0.236
Аудио: AC3, 48 kHz, ~192 Kbps, 2 канала



Общее
Уникальный идентификатор : 208790078947029775111481205446391951710 (0x9D1381AADE7F18CB8122232D4FE8F15E)
Полное имя : F:\Все к лучшему\Все к лучшему_01 серия rip by_Aleksan55.mkv
Формат : Matroska
Версия формата : Version 2
Размер файла : 592 Мбайт
Продолжительность : 43 м.
Общий поток : 1894 Кбит/сек
Дата кодирования : UTC 2016-02-21 10:14:18
Программа кодирования : mkvmerge v7.8.0 ('River Man') 32bit built on Apr 3 2015 12:11:22
Библиотека кодирования : libebml v1.3.1 + libmatroska v1.4.2

Видео
Идентификатор : 1
Формат : AVC
Формат/Информация : Advanced Video Codec
Профиль формата : High@L4.1
Параметр CABAC формата : Да
Параметр ReFrames формата : 9 кадров
Идентификатор кодека : V_MPEG4/ISO/AVC
Продолжительность : 43 м.
Битрейт : 1700 Кбит/сек
Ширина : 720 пикселей
Высота : 400 пикселей
Соотношение сторон : 1,85:1
Режим частоты кадров : Постоянный
Частота кадров : 25,000 кадров/сек
Цветовое пространство : YUV
Субдискретизация насыщенности : 4:2:0
Битовая глубина : 8 бит
Тип развёртки : Прогрессивная
Бит/(Пиксели*Кадры) : 0.236
Размер потока : 520 Мбайт (88%)
Библиотека кодирования : x264 core 146 r2538 121396c
Настройки программы : cabac=1 / ref=9 / deblock=1:-3:-3 / analyse=0x3:0x113 / me=umh / subme=9 / psy=1 / psy_rd=1.00:0.15 / mixed_ref=0 / me_range=32 / chroma_me=1 / trellis=2 / 8x8dct=1 / cqm=0 / deadzone=21,11 / fast_pskip=1 / chroma_qp_offset=-3 / threads=2 / lookahead_threads=4 / sliced_threads=0 / nr=0 / decimate=1 / interlaced=0 / bluray_compat=0 / constrained_intra=0 / bframes=9 / b_pyramid=2 / b_adapt=1 / b_bias=0 / direct=3 / weightb=1 / open_gop=0 / weightp=2 / keyint=250 / keyint_min=25 / scenecut=40 / intra_refresh=0 / rc_lookahead=40 / rc=2pass / mbtree=1 / bitrate=1700 / ratetol=1.0 / qcomp=0.60 / qpmin=0 / qpmax=69 / qpstep=4 / cplxblur=20.0 / qblur=0.5 / ip_ratio=1.40 / aq=1:1.00
Default : Да
Forced : Нет
Цветовой диапазон : Limited
Основные цвета : BT.601 PAL
Характеристики трансфера : BT.470 System B, BT.470 System G
Коэффициенты матрицы : BT.601

Аудио
Идентификатор : 2
Формат : AC-3
Формат/Информация : Audio Coding 3
Расширение режима : CM (complete main)
Параметр Endianness формата : Big
Идентификатор кодека : A_AC3
Продолжительность : 43 м.
Вид битрейта : Постоянный
Битрейт : 192 Кбит/сек
Каналы : 2 канала
Расположение каналов : Front: L R
Частота : 48,0 КГц
Метод сжатия : С потерями
Размер потока : 60,0 Мбайт (10%)
Default : Да
Forced : Нет
Внимание! Раздача ведётся путём добавления новых серий; при каждом добавлении создаётся новый торрент.
Чтобы начать докачку новой серии, пользователям необходимо сделать следующее:
1. Остановить скачивание;
2. Удалить старый торрент у себя из клиента (старые серии удалять не надо);
3. Скачать новый торрент и запустить его у себя в клиенте вместо старого, при этом указать клиенту путь в старую папку куда и должно происходить скачивание новых серий. Ваш клиент при этом должен произвести хеширование (проверку) старой папки и будет докачивать только те серии, которых у вас ещё нет. Старые серии при этом не удаляются, а продолжают раздаваться! Eсли вы уже удалили старые серии, то предотвратить повторную закачку старых серий можно, отжав галочку в соответствующих местах при запуске нового торрента.


Рекламы нет. Добавлены 2-4 серия.pb.wtf



Скачать Всё к лучшему через торрент http://s020.radikal.ru/i719/1602/34/3d8531d9af53.jpg Скачать фильм Всё к лучшему через торрент бесплантно в хорошем качестве Описание:Еще недавно жизнь Анны была вполне благополучна: на работе она считалась лучшей сотрудницей, дома заботилась о стареньком отчиме и ... 9.6 10 5
Info! Серебряная раздача, засчитывается только 50% скачанного.
Торрент: Зарегистрирован [2016-02-21 18:31] · скачан: 221 раз
Статус: √ проверено
Размер: 2.35 GB
Как cкачать? Как скачать Всё к лучшему через торрент | qTorrent

% Раздел Тема Автор DL S | L
Наши сериалы [ 2.25 GB ] Всё к лучшему / Сезон:2 / Серии: 1-4 из 4 [2017 SATRip-AVC] aleksan55 Скачать
1 | 0
Наши сериалы [ 2.37 GB ] Все к лучшему 2 / 1-4 серии из 4 [2017 Мело SATRip] bober100 Скачать
1 | 0

28-11-2019 20:33  

Отключить всю рекламу на сайте

    Дорогой пользователь! Огромная просьба, поблагодарите релизера, оцените раздачу и оставьте свои комментарий, если Вы скачали Всё к лучшему через торрент бесплатно! Внесите свою лепту в развитие PiratBit!
    Комментировать посты могут только пользователи прошедшие не сложную регистрацию
    Показать сообщения:    

    Всё к лучшему через торрент
    Скачать бесплатно Всё к лучшему
    Всё к лучшему скачать торрент
    Всё к лучшему смотреть онлайн
    Cкачать фильм Всё к лучшему бесплатно
    Всё к лучшему скачать торрент в хорошем качестве
    Всё к лучшему смотреть онлайн бесплатно в хорошем качестве


    Вы не можете начинать темы
    Вы не можете отвечать на сообщения
    Вы не можете редактировать свои сообщения
    Вы не можете удалять свои сообщения
    Вы не можете голосовать в опросах
    Вы не можете прикреплять файлы к сообщениям
    Вы можете скачивать файлы