Ссылка на приватное зеркало нашего сайта всего за 1$. Внимание количество ограничено!!!

2 сезон

iTunes

1 сезон

1

iTunes

iTunes

iTunes

1 сезон

RePack

30

ИГРА 18+

pack

ВАЖНО

!!Акция!!

Alien_RageХит недели

RePack

MK11
pack

Забери бонус

RePack

jed

!!Акция!!

Alien_Rage

RePack

fifa19

RePack

Assassins Creed: Odyssey

RePack

NEED FOR SPEED™ PAYBACK

4 сезон

9 сезон

Бесстыжие 9 сезон

Все сериалы

все сериалы на PB.wtf

RePack

FAR CRY 5
  

Кровавый четверг / Thursday (Скип Вудс / Skip Woods) [1998, боевик, триллер, драма, BDRip 720p от potroks] MVO, DVO, AVO pb.wtf

Кровавый четверг через торрент pb.wtf

Размер: 7.76 GB | Добавлен: 4 года 8 мес. назад | Торрент скачан:326 раз
Скачать  

21-02-2016 14:31 Кровавый четверг Скачать торрент  

Кровавый четверг / Thursday
«They say the past always catches up with you. This could be the day»
Год выпуска: 1998
Страна: США / PolyGram Filmed Entertainment, Propaganda Films
Жанр: боевик, триллер, драма, криминал
Продолжительность: 01:27:48
Перевод: Профессиональный (многоголосый) [R5], Профессиональный (двухголосый) [НТВ+], Авторский (одноголосый) [Ю.Сербин, Ю.Живов, Д.Пучков (х2)]
Субтитры: русские (полные + SDH(x2)), английские (Full + SDH)
Навигация по главам: есть
Режиссер: Скип Вудс / Skip Woods
В ролях:

Томас Джейн (Casey), Аарон Экхарт (Nick), Паулина Поризкова (Dallas), Джеймс ЛеГрос (Billy Hill), Пола Маршалл (Christine), Майкл Джитер (Dr. Jarvis), Гленн Пламмер (Ice), Микки Рурк (Kasarov), Люк Хари (Cashier), Бари К. Уиллерфорд (Cop), Ричард Вонг (Mr. Wong), Шон Майкл Ховард (Jimmy)
Описание: Бывший торговец наркотиками, прошедший через все круги ада, решает выйти на пенсию и забыть о своём тёмном прошлом. Переехав из Лос-Анджелеса в Хьюстон, он резко меняет свой имидж и в глазах окружающих становится обыкновенным гражданином, которого трудно заподозрить в чём-либо криминальном. Однако судьба готовит очередной, самый неожиданный сюрприз бывшему наркодилеру. В город приезжает его подельник с грузом героина. Компаньон и не думал забывать о своём партнёре всё то время, пока тот строил свою новую жизнь. Он предлагает ему последнюю сделку. За всё однажды приходится платить, и бывший наркоделец оказывается на волосок от смерти.

Качество: BDRip 720p
Формат: MKV
Видео кодек: AVC
Аудио кодек: AC3
Видео: AVC, 1280x696 (16:9), 8619 kbps, 23,976 fps, 0,404 bit/pixel
Аудио №1: AC3 / 5.1 / 48 kHz / 448 kbps / 16 bit | MVO - R5
Аудио №2: AC3 / 5.1 / 48 kHz / 384 kbps / 16 bit | DVO - НТВ+
Аудио №3: AC3 / 5.1 / 48 kHz / 640 kbps / 16 bit | AVO - Ю.Сербин
Аудио №4: AC3 / 5.1 / 48 kHz / 640 kbps / 16 bit | AVO - Ю.Живов
Аудио №5: AC3 / 5.1 / 48 kHz / 640 kbps / 16 bit | AVO - Д.Пучков [ранний]
Аудио №6: AC3 / 5.1 / 48 kHz / 448 kbps / 16 bit | AVO - Д.Пучков [поздний]
Аудио №7: AC3 / 2.0 / 48 kHz / 192 kbps / 16 bit | UKR - DVO [1+1]
Аудио №8: AC3 / 5.1 / 48 kHz / 640 kbps / 16 bit | ENG

Релиз группы:
Автор рипа: potroks

Код:

General
Unique ID                                : 198248569272601723171570469978596543863 (0x9525491D0AE008948D53E78E93F18D77)
Complete name                            : Krovavyi.Chetverg.1998.MVO.AVO.UKR.ENG.BDRip.720p.-HELLYWOOD.mkv
Format                                   : Matroska
Format version                           : Version 4 / Version 2
File size                                : 7.76 GiB
Duration                                 : 1h 27mn
Overall bit rate                         : 12.7 Mbps
Movie name                               : Thursday (1998) - HELLYWOOD
Encoded date                             : UTC 2016-02-21 13:08:37
Writing application                      : mkvmerge v5.9.0 ('On The Loose') built on Dec 15 2012 16:39:58
Writing library                          : libebml v1.3.0 + libmatroska v1.4.0

Video
ID                                       : 1
Format                                   : AVC
Format/Info                              : Advanced Video Codec
Format profile                           : High@L4.1
Format settings, CABAC                   : Yes
Format settings, ReFrames                : 9 frames
Codec ID                                 : V_MPEG4/ISO/AVC
Duration                                 : 1h 27mn
Bit rate                                 : 8 619 Kbps
Width                                    : 1 280 pixels
Height                                   : 696 pixels
Display aspect ratio                     : 16:9
Frame rate                               : 23.976 fps
Color space                              : YUV
Chroma subsampling                       : 4:2:0
Bit depth                                : 8 bits
Scan type                                : Progressive
Bits/(Pixel*Frame)                       : 0.404
Stream size                              : 5.13 GiB (66%)
Title                                    : potroks
Writing library                          : x264 core 148 r2665M a01e339
Encoding settings                        : cabac=1 / ref=9 / deblock=1:-3:-3 / analyse=0x3:0x133 / me=umh / subme=11 / psy=1 / psy_rd=0.94:0.00 / mixed_ref=1 / me_range=48 / chroma_me=1 / trellis=2 / 8x8dct=1 / cqm=0 / deadzone=21,11 / fast_pskip=0 / chroma_qp_offset=-2 / threads=9 / lookahead_threads=2 / sliced_threads=0 / nr=0 / decimate=1 / interlaced=0 / bluray_compat=0 / constrained_intra=0 / bframes=10 / b_pyramid=2 / b_adapt=2 / b_bias=0 / direct=3 / weightb=1 / open_gop=0 / weightp=2 / keyint=240 / keyint_min=23 / scenecut=40 / intra_refresh=0 / rc=2pass / mbtree=0 / bitrate=8619 / ratetol=1.0 / qcomp=0.70 / qpmin=0 / qpmax=69 / qpstep=4 / cplxblur=20.0 / qblur=0.5 / ip_ratio=1.40 / pb_ratio=1.30 / aq=1:0.90
Language                                 : English
Default                                  : Yes
Forced                                   : No

Audio #1
ID                                       : 2
Format                                   : AC-3
Format/Info                              : Audio Coding 3
Mode extension                           : CM (complete main)
Codec ID                                 : A_AC3
Duration                                 : 1h 27mn
Bit rate mode                            : Constant
Bit rate                                 : 448 Kbps
Channel(s)                               : 6 channels
Channel positions                        : Front: L C R, Side: L R, LFE
Sampling rate                            : 48.0 KHz
Bit depth                                : 16 bits
Compression mode                         : Lossy
Stream size                              : 281 MiB (4%)
Title                                    : MVO | DD 5.1 @ 448 kbps - R5
Language                                 : Russian
Default                                  : Yes
Forced                                   : No

Audio #2
ID                                       : 3
Format                                   : AC-3
Format/Info                              : Audio Coding 3
Mode extension                           : CM (complete main)
Codec ID                                 : A_AC3
Duration                                 : 1h 27mn
Bit rate mode                            : Constant
Bit rate                                 : 384 Kbps
Channel(s)                               : 6 channels
Channel positions                        : Front: L C R, Side: L R, LFE
Sampling rate                            : 48.0 KHz
Bit depth                                : 16 bits
Compression mode                         : Lossy
Stream size                              : 241 MiB (3%)
Title                                    : DVO | DD 5.1 @ 384 kbps - NTV+
Language                                 : Russian
Default                                  : No
Forced                                   : No

Audio #3
ID                                       : 4
Format                                   : AC-3
Format/Info                              : Audio Coding 3
Mode extension                           : CM (complete main)
Codec ID                                 : A_AC3
Duration                                 : 1h 27mn
Bit rate mode                            : Constant
Bit rate                                 : 640 Kbps
Channel(s)                               : 6 channels
Channel positions                        : Front: L C R, Side: L R, LFE
Sampling rate                            : 48.0 KHz
Bit depth                                : 16 bits
Compression mode                         : Lossy
Stream size                              : 402 MiB (5%)
Title                                    : AVO | DD 5.1 @ 640 kbps - Yu.Serbin
Language                                 : Russian
Default                                  : No
Forced                                   : No

Audio #4
ID                                       : 5
Format                                   : AC-3
Format/Info                              : Audio Coding 3
Mode extension                           : CM (complete main)
Codec ID                                 : A_AC3
Duration                                 : 1h 27mn
Bit rate mode                            : Constant
Bit rate                                 : 640 Kbps
Channel(s)                               : 6 channels
Channel positions                        : Front: L C R, Side: L R, LFE
Sampling rate                            : 48.0 KHz
Bit depth                                : 16 bits
Compression mode                         : Lossy
Stream size                              : 402 MiB (5%)
Title                                    : AVO | DD 5.1 @ 640 kbps - Yu.Zhivov
Language                                 : Russian
Default                                  : No
Forced                                   : No

Audio #5
ID                                       : 6
Format                                   : AC-3
Format/Info                              : Audio Coding 3
Mode extension                           : CM (complete main)
Codec ID                                 : A_AC3
Duration                                 : 1h 27mn
Bit rate mode                            : Constant
Bit rate                                 : 640 Kbps
Channel(s)                               : 6 channels
Channel positions                        : Front: L C R, Side: L R, LFE
Sampling rate                            : 48.0 KHz
Bit depth                                : 16 bits
Compression mode                         : Lossy
Stream size                              : 402 MiB (5%)
Title                                    : AVO | DD 5.1 @ 640 kbps - D.Puchkov [early]
Language                                 : Russian
Default                                  : No
Forced                                   : No

Audio #6
ID                                       : 7
Format                                   : AC-3
Format/Info                              : Audio Coding 3
Mode extension                           : CM (complete main)
Codec ID                                 : A_AC3
Duration                                 : 1h 27mn
Bit rate mode                            : Constant
Bit rate                                 : 448 Kbps
Channel(s)                               : 6 channels
Channel positions                        : Front: L C R, Side: L R, LFE
Sampling rate                            : 48.0 KHz
Bit depth                                : 16 bits
Compression mode                         : Lossy
Stream size                              : 281 MiB (4%)
Title                                    : AVO | DD 5.1 @ 448 kbps - D.Puchkov [late]
Language                                 : Russian
Default                                  : No
Forced                                   : No

Audio #7
ID                                       : 8
Format                                   : AC-3
Format/Info                              : Audio Coding 3
Mode extension                           : CM (complete main)
Codec ID                                 : A_AC3
Duration                                 : 1h 27mn
Bit rate mode                            : Constant
Bit rate                                 : 192 Kbps
Channel(s)                               : 2 channels
Channel positions                        : Front: L R
Sampling rate                            : 48.0 KHz
Bit depth                                : 16 bits
Compression mode                         : Lossy
Stream size                              : 121 MiB (2%)
Title                                    : DVO | DD 2.0 @ 192 kbps - 1+1
Language                                 : Ukrainian
Default                                  : No
Forced                                   : No

Audio #8
ID                                       : 9
Format                                   : AC-3
Format/Info                              : Audio Coding 3
Mode extension                           : CM (complete main)
Codec ID                                 : A_AC3
Duration                                 : 1h 27mn
Bit rate mode                            : Constant
Bit rate                                 : 640 Kbps
Channel(s)                               : 6 channels
Channel positions                        : Front: L C R, Side: L R, LFE
Sampling rate                            : 48.0 KHz
Bit depth                                : 16 bits
Compression mode                         : Lossy
Stream size                              : 402 MiB (5%)
Title                                    : Original | DD 5.1 @ 640 kbps
Language                                 : English
Default                                  : No
Forced                                   : No

Text #1
ID                                       : 10
Format                                   : UTF-8
Codec ID                                 : S_TEXT/UTF8
Codec ID/Info                            : UTF-8 Plain Text
Title                                    : Full
Language                                 : Russian
Default                                  : No
Forced                                   : No

Text #2
ID                                       : 11
Format                                   : UTF-8
Codec ID                                 : S_TEXT/UTF8
Codec ID/Info                            : UTF-8 Plain Text
Title                                    : SDH1 [Uncensored]
Language                                 : Russian
Default                                  : No
Forced                                   : No

Text #3
ID                                       : 12
Format                                   : UTF-8
Codec ID                                 : S_TEXT/UTF8
Codec ID/Info                            : UTF-8 Plain Text
Title                                    : SDH2 [Uncensored]
Language                                 : Russian
Default                                  : No
Forced                                   : No

Text #4
ID                                       : 13
Format                                   : UTF-8
Codec ID                                 : S_TEXT/UTF8
Codec ID/Info                            : UTF-8 Plain Text
Title                                    : Full
Language                                 : English
Default                                  : No
Forced                                   : No

Text #5
ID                                       : 14
Format                                   : UTF-8
Codec ID                                 : S_TEXT/UTF8
Codec ID/Info                            : UTF-8 Plain Text
Title                                    : SDH
Language                                 : English
Default                                  : No
Forced                                   : No

Menu
00:00:00.000                             : :(01)00:00:00:000
00:05:18.317                             : :(02)00:05:18:317
00:12:42.970                             : :(03)00:12:42:970
00:17:10.028                             : :(04)00:17:10:028
00:22:43.362                             : :(05)00:22:43:362
00:27:42.494                             : :(06)00:27:42:494
00:33:41.019                             : :(07)00:33:41:019
00:38:28.139                             : :(08)00:38:28:139
00:43:30.315                             : :(09)00:43:30:315
00:49:01.938                             : :(10)00:49:01:938
00:55:13.309                             : :(11)00:55:13:309
00:59:53.298                             : :(12)00:59:53:298
01:05:45.232                             : :(13)01:05:45:232
01:10:38.067                             : :(14)01:10:38:067
01:17:07.997                             : :(15)01:17:07:997
01:22:45.961                             : :(16)01:22:45:961
01:27:47.720                             : :(17)01:27:47:720

pb.wtf



Скачать Кровавый четверг через торрент http://i76.fastpic.ru/big/2016/0221/d0/ff0181e5e944004bcb563fe207f7d1d0.png Скачать фильм Кровавый четверг через торрент бесплантно в хорошем качестве Описание: Бывший торговец наркотиками, прошедший через все круги ада, решает выйти на пенсию и забыть о своём тёмном прошлом. Переехав из ... 9 10 11
Info! Золотая раздача, скачанное не засчитывается.
Торрент: Зарегистрирован [2016-02-21 14:31] · скачан: 326 раз
Статус: √ проверено
Размер: 7.76 GB
Как cкачать? Как скачать Кровавый четверг через торрент | qTorrent

% Раздел Тема Автор DL S | L
Фильмы до 2000 г. [ 3.48 GB ] Кровавый четверг / Thursday [1998 BDRip-AVC] MVO + DVO + AVO mihis Скачать
1 | 0

28-11-2019 20:33  

Отключить всю рекламу на сайте

21-02-2016 15:58 Кровавый четверг Скачать торрент  

ОПА - В коллекцию. Пучков - это жесть pb.wtf



21-02-2016 17:30 Кровавый четверг Скачать торрент  

фильм огоньpb.wtf



21-02-2016 20:20 Кровавый четверг Скачать торрент  

Паулина, женщина огонь, моя юношеская фантазия, спасибо за релиз и что не в 60 фпс.pb.wtf



21-02-2016 22:29 Кровавый четверг Скачать торрент  

1080р будет?pb.wtf



22-02-2016 13:22 Кровавый четверг Скачать торрент  

фильм жесть обязателен к просмотру!!! pb.wtf



27-02-2016 08:10 Кровавый четверг Скачать торрент  

bober100, а чо мне таких же значков как у тебя не дают?pb.wtf



27-02-2016 15:59 Кровавый четверг Скачать торрент  

Спасибо, вспомнил молодость и видеокассеты )) pb.wtf



19-05-2016 22:10 Кровавый четверг Скачать торрент  

надо посмотретьpb.wtf



    Дорогой пользователь! Огромная просьба, поблагодарите релизера, оцените раздачу и оставьте свои комментарий, если Вы скачали Кровавый четверг через торрент бесплатно! Внесите свою лепту в развитие PiratBit!
    Комментировать посты могут только пользователи прошедшие не сложную регистрацию
    Показать сообщения:    

    Кровавый четверг через торрент
    Скачать бесплатно Кровавый четверг
    Кровавый четверг скачать торрент
    Кровавый четверг смотреть онлайн
    Cкачать фильм Кровавый четверг бесплатно
    Кровавый четверг скачать торрент в хорошем качестве
    Кровавый четверг смотреть онлайн бесплатно в хорошем качестве


    Вы не можете начинать темы
    Вы не можете отвечать на сообщения
    Вы не можете редактировать свои сообщения
    Вы не можете удалять свои сообщения
    Вы не можете голосовать в опросах
    Вы не можете прикреплять файлы к сообщениям
    Вы можете скачивать файлы