Всегда рабочее зеркало просто перед .vidak.icu напиши любое слово или цифру, Пример http://7i7.vidak.icu

>

7.4

iTunes

7.4

2 сезон

6.6

iTunes

1

7.4

2 сезон

7.2

iTunes

6.0

MVO

13

6.1

iTunes

8.3

Пиратка

30

ULTIMATE

pack

9.9

Лицензия

ВАЖНО

ИГРА 18+

pack

7.3

RePack

MK11

7.7

RePack

jed

7.8

RePack

fifa19

8.5

RePack

RDR2

RePack

NEED FOR SPEED™ PAYBACK

1 сезон

9 сезон

Бесстыжие 9 сезон

Все сериалы

все сериалы на PB.wtf

RePack

FAR CRY 5

Anonymous, доброй ночи, мы катастрофически не успеваем собрать деньги на оплату серверов, помогите нам пожалуйста 5,10,15р., для нас важна любая помощь . В качестве благодарности мы отключим Вам всю рекламу на сайте (укажите свой ник в строку Ваше имя)!

×
  
Magnet ссылка

Комната / Room (Леонард Абрахамсон) [2015 г., драма, HDRip, Авторский одноголосый "А.Матвеев"] pb.wtf

Комната через торрент pb.wtf

Размер: 2.17 GB | Добавлен: 5 лет 11 мес. назад | Торрент скачан:30 раз
Смотреть онлайн Комната | Скачать    Ребята, помогите собрать деньги на оплату серверов!!!

21-02-2016 18:20 Комната Скачать торрент  

Комната / Room
Год выпуска: 2015
Страна: Ирландия, Канада / A24, Element Pictures, No Trace Camping
Жанр: драма
Продолжительность: 01:57:38
Перевод: Авторский одноголосый (А.Матвеев)

Режиссер: Леонард Абрахамсон

IMDB 8.30 (44 721)


В ролях: Бри Ларсон, Джейкоб Тремблэ, Шон Бриджерс, Джоан Аллен, Том МакКэмус, Уильям Х. Мэйси, Кэс Анвар, Рендал Эдвардс, Аманда Бругел, Джо Пинг

Описание: Девушку по имени Ма похитили, когда она была еще подростком. С тех пор бедняга живет в крохотной комнатке вместе со своим 5-летним сыном Джеком. Мальчик при этом ничего кроме этой комнаты не видел, он в ней родился и ни разу ее не покидал.

Качество: HDRip
Формат: AVI
Видео кодек: XviD
Аудио кодек: AC3
Видео: MPEG4, XviD, 720x304 (2.35:1), 23.976 fps, 2 187 Kbps (0.417 bit/pixel)
Аудио: AC-3, 48.0 KHz, 6 ch, 448 Kbps, CBR
скриншот   скриншот   скриншот   скриншот   скриншот   скриншот  

Общее
Полное имя : F:\кино\Комната.2015.A.HDRip.avi
Формат : AVI
Формат/Информация : Audio Video Interleave
Профиль формата : OpenDML
Размер файла : 2,17 Гбайт
Продолжительность : 1 ч. 57 м.
Общий поток : 2647 Кбит/сек
Программа кодирования : VirtualDubMod 1.5.10.3 | www.virtualdub-fr.org || (build 2550/release)
Библиотека кодирования : VirtualDubMod build 2550/release

Видео
Идентификатор : 0
Формат : MPEG-4 Visual
Профиль формата : Advanced Simple@L5
Параметр BVOP формата : 2
Параметр QPel формата : Нет
Параметр GMC формата : Без точки перехода
Параметр матрицы формата : Default (H.263)
Идентификатор кодека : XVID
Идентификатор кодека/Подсказка : XviD
Продолжительность : 1 ч. 57 м.
Битрейт : 2187 Кбит/сек
Ширина : 720 пикселей
Высота : 304 пикселя
Соотношение сторон : 2,35:1
Частота кадров : 23,976 (23976/1000) кадра/сек
Цветовое пространство : YUV
Субдискретизация насыщенности : 4:2:0
Битовая глубина : 8 бит
Тип развёртки : Прогрессивная
Метод сжатия : С потерями
Бит/(Пиксели*Кадры) : 0.417
Размер потока : 1,80 Гбайт (83%)
Библиотека кодирования : XviD 1.2.1 (UTC 2008-12-04)

Аудио
Идентификатор : 1
Формат : AC-3
Формат/Информация : Audio Coding 3
Расширение режима : CM (complete main)
Параметр Endianness формата : Big
Идентификатор кодека : 2000
Продолжительность : 1 ч. 57 м.
Вид битрейта : Постоянный
Битрейт : 448 Кбит/сек
Каналы : 6 каналов
Расположение каналов : Front: L C R, Side: L R, LFE
Частота : 48,0 КГц
Частота кадров : 31,250 кадров/сек (1536 spf)
Метод сжатия : С потерями
Размер потока : 377 Мбайт (17%)
Выравнивание : Разделение по промежуткам
Продолжительность промежутка : 42 мс. (1,00 видеокадр)
Время предзагрузки промежутка : 500 мс.

pb.wtf



Скачать Комната через торрент https://pic.kartinco.top/images/11/2ulz4.jpg Скачать, смотреть онлайн Комната бесплантно в хорошем качестве Описание: Девушку по имени Ма похитили, когда она была еще подростком. С тех пор бедняга живет в крохотной комнатке вместе со своим ... 10 10 2
Торрент: Зарегистрирован [2016-02-21 18:20] · скачан: 30 раз
Статус: √ проверено
Размер: 2.17 GB
Как cкачать? Как скачать Комната через торрент | UTorrent

% Раздел Тема Автор DL S | L
Фильмы 2019-2020 [DVDrip, WEB-DLRip, HDrip] (DUB, MVO) [ 1.42 GB ] Комната желаний / The Room [2019 BDRip] bober100 Скачать
1 | 0
Фильмы [HD 720p, 1080p] (Хороший звук DUB, MVO) [ 9.96 GB ] Комната в Риме / Habitación en Roma [2009 BDRip 1080p by msltel] MVO msltel Скачать
1 | 0
Фильмы [HD 720p, 1080p] (Хороший звук DUB, MVO) [ 3.71 GB ] Комната в Риме / Habitación en Roma [2009 BDRip 720p by msltel] MVO msltel Скачать
1 | 0
Фильмы до 2000 г. [ 934 MB ] Укуренные 7 / Прочь из моей комнаты! / Get Out of My Room [1985 музыка DVDRip] VO killermax2013 Скачать
1 | 0
Порно фильмы без сюжета [ 1.39 GB ] In The Room: I Like To Watch 2 / В Этой Комнате: Мне Нравится Смотреть 2 [2018 Fetish Made For Women Voyeurism DVDRip] Venom Скачать
1 | 0
T Фильмы 2019-2020 [DVDrip, WEB-DLRip, HDrip] (DUB, MVO) [ 1.36 GB ] Комната смерти / Doom Room [2019 WEB-DLRip] MVO [HDREzka Studio] - ExKinoRay Enigma2010 Скачать
1 | 0
T Фильмы (WEB-DL 720p, 1080p) [ 4.6 GB ] Комната смерти / Doom Room [2019 WEB-DL 1080p] MVO [HDREzka Studio] - ExKinoRay Enigma2010 Скачать
1 | 0

28-11-2019 20:33  

Отключить всю рекламу на сайте

    Дорогой пользователь! Огромная просьба, поблагодарите релизера, оцените раздачу и оставьте свои комментарий, если Вы скачали Комната через торрент бесплатно!
    Комментировать посты могут только пользователи прошедшие не сложную регистрацию
    Показать сообщения:    

    Комната через торрент
    Скачать бесплатно Комната
    Комната скачать торрент
    Комната смотреть онлайн
    Cкачать фильм Комната бесплатно
    Комната скачать торрент в хорошем качестве
    Комната смотреть онлайн бесплатно в хорошем качестве


    Вы не можете начинать темы
    Вы не можете отвечать на сообщения
    Вы не можете редактировать свои сообщения
    Вы не можете удалять свои сообщения
    Вы не можете голосовать в опросах
    Вы не можете прикреплять файлы к сообщениям
    Вы можете скачивать файлы