Ссылка на приватное зеркало нашего сайта всего за 1$. Внимание количество ограничено!!!

2 сезон

iTunes

1 сезон

1

2 сезон

2 сезон

iTunes

1 сезон

RePack

30

Новинка

ВАЖНО

ИГРА 18+

pack

RePack

MK11
pack

Забери бонус

RePack

jed

!!Акция!!

Alien_Rage

RePack

fifa19

RePack

Assassins Creed: Odyssey

RePack

NEED FOR SPEED™ PAYBACK

4 сезон

9 сезон

Бесстыжие 9 сезон

Все сериалы

все сериалы на PB.wtf

RePack

FAR CRY 5
  

(Classic Rock) Dire Straits - Brothers in Arms - 1985, FLAC (tracks+.cue), lossless pb.wtf

через торрент pb.wtf

Размер: 257 MB | Добавлен: 10 лет назад | Торрент скачан:1 раз
Скачать  

03-08-2010 20:35 Скачать торрент  

Dire Straits - Brothers in Arms

Производитель диска: Germany
Жанр: Classic Rock
Год выпуска диска: 1985
Формат: FLAC (tracks+.cue)
Битрейт аудио: lossless
Продолжительность: 55:14
Лейбл: Vertigo
Номер каталога: 824 499-2

Трэклист:
01. So Far Away (5:12)
02. Money For Nothing (8:26)
03. Walk Of Life (4:12)
04. Your Latest Trick (6:34)
05. Why Worry (8:31)
06. Ride Across The River (6:58)
07. The Man's Too Strong (4:40)
08. One World (3:41)
09. Brothers In Arms (6:59)

EAC extraction logfile from 28. September 2007, 18:38 for CD
Dire Straits / Brothers In Arms

Used drive : TSSTcorpCDRW/DVD TSH492B Adapter: 0 ID: 0
Read mode : Secure with NO C2, accurate stream, disable cache
Read offset correction : 6
Overread into Lead-In and Lead-Out : No

Used output format : C:\Program Files\Exact Audio Copy\flac-1.1.3-win\bin\flac.exe (User Defined Encoder)
192 kBit/s
Additional command line options : -8 -A tukey(0.25) -A gauss(0.1875) -b 4096 -V -T "artist=%a" -T "title=%t" -T "album=%g" -T "date=%y" -T "tracknumber=%n" -T "genre=%m" %s --sector-align

Other options :
Fill up missing offset samples with silence : Yes
Delete leading and trailing silent blocks : No
Installed external ASPI interface

Track 1
Filename C:\EAC MP3 DUMP\01 - So Far Away.wav

Pre-gap length 0:00:02.42

Peak level 79.4 %
Track quality 99.9 %
Test CRC 165EB11C
Copy CRC 165EB11C
Copy OK

Track 2
Filename C:\EAC MP3 DUMP\02 - Money For Nothing.wav

Pre-gap length 0:00:06.46

Peak level 79.4 %
Track quality 100.0 %
Test CRC A85C5089
Copy CRC A85C5089
Copy OK

Track 3
Filename C:\EAC MP3 DUMP\03 - Walk Of Life.wav

Pre-gap length 0:00:01.40

Peak level 44.7 %
Track quality 100.0 %
Test CRC 4E6C85A0
Copy CRC 4E6C85A0
Copy OK

Track 4
Filename C:\EAC MP3 DUMP\04 - Your Latest Trick.wav

Pre-gap length 0:00:05.16

Peak level 33.0 %
Track quality 100.0 %
Test CRC AC8A1380
Copy CRC AC8A1380
Copy OK

Track 5
Filename C:\EAC MP3 DUMP\05 - Why Worry.wav

Pre-gap length 0:00:04.46

Peak level 18.0 %
Track quality 100.0 %
Test CRC 99F6E3C9
Copy CRC 99F6E3C9
Copy OK

Track 6
Filename C:\EAC MP3 DUMP\06 - Ride Across The River.wav

Pre-gap length 0:00:06.77

Peak level 57.6 %
Track quality 99.9 %
Test CRC A949FA7E
Copy CRC A949FA7E
Copy OK

Track 7
Filename C:\EAC MP3 DUMP\07 - The Man's Too Strong.wav

Pre-gap length 0:00:02.00

Peak level 54.9 %
Track quality 99.9 %
Test CRC 643AFE81
Copy CRC 643AFE81
Copy OK

Track 8
Filename C:\EAC MP3 DUMP\08 - One World.wav

Pre-gap length 0:00:02.22

Peak level 71.1 %
Track quality 100.0 %
Test CRC 4E8E1C31
Copy CRC 4E8E1C31
Copy OK

Track 9
Filename C:\EAC MP3 DUMP\09 - Brothers In Arms.wav

Pre-gap length 0:00:04.36

Peak level 44.9 %
Track quality 99.9 %
Test CRC 190229BC
Copy CRC 190229BC
Copy OK

No errors occured

End of status report
REM GENRE Rock
REM DATE 1985
REM DISCID 8D0CF209
REM COMMENT "ExactAudioCopy v0.95b3"
PERFORMER "Dire Straits"
TITLE "Brothers In Arms"
FILE "01 - So Far Away.wav" WAVE
TRACK 01 AUDIO
TITLE "So Far Away"
PERFORMER "Dire Straits"
PREGAP 00:00:32
INDEX 01 00:00:00
TRACK 02 AUDIO
TITLE "Money For Nothing"
PERFORMER "Dire Straits"
INDEX 00 05:05:53
FILE "02 - Money For Nothing.wav" WAVE
INDEX 01 00:00:00
TRACK 03 AUDIO
TITLE "Walk Of Life"
PERFORMER "Dire Straits"
INDEX 00 08:24:65
FILE "03 - Walk Of Life.wav" WAVE
INDEX 01 00:00:00
TRACK 04 AUDIO
TITLE "Your Latest Trick"
PERFORMER "Dire Straits"
INDEX 00 04:07:25
FILE "04 - Your Latest Trick.wav" WAVE
INDEX 01 00:00:00
TRACK 05 AUDIO
TITLE "Why Worry"
PERFORMER "Dire Straits"
INDEX 00 06:29:30
FILE "05 - Why Worry.wav" WAVE
INDEX 01 00:00:00
TRACK 06 AUDIO
TITLE "Ride Across The River"
PERFORMER "Dire Straits"
INDEX 00 08:24:40
FILE "06 - Ride Across The River.wav" WAVE
INDEX 01 00:00:00
TRACK 07 AUDIO
TITLE "The Man's Too Strong"
PERFORMER "Dire Straits"
INDEX 00 06:56:05
FILE "07 - The Man's Too Strong.wav" WAVE
INDEX 01 00:00:00
TRACK 08 AUDIO
TITLE "One World"
PERFORMER "Dire Straits"
INDEX 00 04:38:00
FILE "08 - One World.wav" WAVE
INDEX 01 00:00:00
TRACK 09 AUDIO
TITLE "Brothers In Arms"
PERFORMER "Dire Straits"
INDEX 00 03:36:38
FILE "09 - Brothers In Arms.wav" WAVE
INDEX 01 00:00:00
pb.wtf



Скачать через торрент http://s.dsimg.com/image/R-768493-1274288405.jpeg Скачать фильм через торрент бесплантно в хорошем качестве Трэклист: So Far Away (5:12) Money For Nothing (8:26) Walk Of Life (4:12) Your Latest Trick (6:34) Why Worry (8:31) ... 6 10 2
Info! Золотая раздача, скачанное не засчитывается.
Торрент: Зарегистрирован [2010-08-03 20:35] · скачан: 1 раз
Статус: √ проверено
Размер: 257 MB
Как cкачать? Как скачать через торрент | qTorrent

% Раздел Тема Автор DL S | L
Classic Rock & Hard Rock (lossless) [ 2.68 GB ] EVANESCENCE Дискография - 1998-2007 FLAC lossless ser_1985 Скачать
1 | 0
Eurodance, Technopop, Disco (lossless) [ 1.86 GB ] Dr. Alban Студийные альбомы - 5CD [FLAC lossless] tauras Скачать
1 | 0
Action FPS (1st Person) [ 8.89 GB ] Star Wars: The Force Unleashed - Ultimate Sith Edition [Lossless Repack RU/EN] от Druid =Чувак= Скачать
1 | 0
Архив (Alternative, Punk, Independent) [ 1.74 GB ] Breaking Benjamin - Дискография - 2001-2009 FLAC lossless King_IS_Back Скачать
1 | 0
Гоночные симуляторы [ 3.18 GB ] Дальнобойщик​и 3: Золотое Издание [Lossless Repack RU] от R.G. Catalyst roman3310i Скачать
1 | 0
Архив (Многоканальная музыка и собственные оцифровки) [ 405 MB ] Black Sabbath -Heaven & hell - 1980 DTS lossless staryirocker Скачать
1 | 0
RTS (стратегии в реальном времени) [ 4.21 GB ] Command & Conquer 4: Tiberian Twilight [Lossless RePackRUEA] Alex_Zeyn Скачать
1 | 0

28-11-2019 20:33  

Отключить всю рекламу на сайте

    Дорогой пользователь! Огромная просьба, поблагодарите релизера, оцените раздачу и оставьте свои комментарий, если Вы скачали через торрент бесплатно! Внесите свою лепту в развитие PiratBit!
    Комментировать посты могут только пользователи прошедшие не сложную регистрацию
    Показать сообщения:    

    через торрент
    Скачать бесплатно
    скачать торрент
    смотреть онлайн
    Cкачать фильм бесплатно
    скачать торрент в хорошем качестве
    смотреть онлайн бесплатно в хорошем качестве


    Вы не можете начинать темы
    Вы не можете отвечать на сообщения
    Вы не можете редактировать свои сообщения
    Вы не можете удалять свои сообщения
    Вы не можете голосовать в опросах
    Вы не можете прикреплять файлы к сообщениям
    Вы можете скачивать файлы