Ссылка на приватное зеркало нашего сайта всего за 1$. Внимание количество ограничено!!!

2 сезон

iTunes

1 сезон

1

iTunes

iTunes

iTunes

1 сезон

RePack

30

ИГРА 18+

pack

ВАЖНО

!!Акция!!

Alien_RageХит недели

RePack

MK11
pack

Забери бонус

RePack

jed

!!Акция!!

Alien_Rage

RePack

fifa19

RePack

Assassins Creed: Odyssey

RePack

NEED FOR SPEED™ PAYBACK

4 сезон

9 сезон

Бесстыжие 9 сезон

Все сериалы

все сериалы на PB.wtf

RePack

FAR CRY 5
  

Приключения няни / Adventures in Babysitting (Крис Коламбус) [1987, боевик, триллер, мелодрама, комедия, криминал, приключения, BDRip 720p by msltel] DUB, MVO pb.wtf

Приключения няни через торрент pb.wtf

Размер: 5.27 GB | Добавлен: 4 года 8 мес. назад | Торрент скачан:40 раз
Скачать  

22-02-2016 07:29 Приключения няни Скачать торрент  

Название: Приключения няни
Оригинальное название: Adventures in Babysitting
Год выпуска: 1987
Страна: США
Жанр: боевик, триллер, мелодрама, комедия, криминал, приключения
Продолжительность: 01:42:26
Перевод: дублированный, профессиональный многоголосый

Режиссёр: Крис Коламбус

В ролях: Элизабет Шу, Майа Брутон, Кит Куган, Энтони Рэпп, Кэлвин Левелс, Винсент Д`Онофрио, Пенелопа Энн Миллер, Джордж Ньюберн, Джон Форд Нунан, Брэдли Уитфорд, Рон Кэнада, Джон Дэвис Чэндлер, Дэн Зиски, Аллан Ааронс, Марсия Беннетт, Румми Бишоп, Дэвид Блэкер, Лолита Давидович, Джон Ди, Моника Деверо, Кларк Деверо, Рик Голдман, Дерек Хэйзел, Джон Хемфилл, Фрэнк Хилл, Филип Хони, Кларк Джонсон, Марианн Келман, Питер Лавендер, Кевин Ланд, Лес Ниренберг, Хуан Рамирес, Ричард Ребьере, Дайан Робин, Сэнди Росс, Шарлин Шипп, Сандра Шуман, Линда Соренсон, Уолт Вудсон, Альберт Коллинз, Джордан-Патрик Маркантон

Описание: Девушка по имени Крис Паркер даже не подозревала о том, что ей придётся быть няней. Но, пережив ссору со своим другом, Крис решила хоть как-то отвлечься и, заодно, заработать. В первый же вечер, вооружившись журналами мод, записной книжкой и грудой косметики, она приготовилась поскучать. Но то, что произошло дальше с няней и её тремя подопечными, не поддаётся описанию. Во всяком случае, скучно им не было...



Качество: BDRip 720p Сравнение с исходником
Формат: MKV
Видео: MPEG-4 AVC, 6540 Кбит/с, 1280x690, 23,976 кадра/с
Аудио 1: русский, AC3, 192 kbps, 2 ch, 48 kHz [дублированный, РТР]
Аудио 2: русский, AC3, 192 kbps, 2 ch, 48 kHz [профессиональный многоголосый, ТВ3]
Аудио 3: английский, AC3, 448 kbps, 6 ch, 48 kHz [оригинал]
Субтитры: английские (для слабослышащих)
Общее
Уникальный идентификатор : 199100080733157467983858166952547370267 (0x95C947DEAAF27530AA5BC8C4D06CC51B)
Полное имя : D:\Video\Приключения няни.1987.BDRip.720p.mkv
Формат : Matroska
Версия формата : Version 4 / Version 2
Размер файла : 5,27 Гбайт
Продолжительность : 1 ч. 42 м.
Общий поток : 7365 Кбит/сек
Дата кодирования : UTC 2016-02-21 11:39:14
Программа кодирования : mkvmerge v8.2.0 ('World of Adventure') 64bit
Библиотека кодирования : libebml v1.3.1 + libmatroska v1.4.2

Видео
Идентификатор : 1
Формат : AVC
Формат/Информация : Advanced Video Codec
Профиль формата : High@L4.1
Параметр CABAC формата : Да
Параметр ReFrames формата : 9 кадров
Идентификатор кодека : V_MPEG4/ISO/AVC
Продолжительность : 1 ч. 42 м.
Битрейт : 6540 Кбит/сек
Ширина : 1280 пикселей
Высота : 690 пикселей
Соотношение сторон : 1,85:1
Режим частоты кадров : Постоянный
Частота кадров : 23,976 (24000/1001) кадра/сек
Цветовое пространство : YUV
Субдискретизация насыщенности : 4:2:0
Битовая глубина : 8 бит
Тип развёртки : Прогрессивная
Бит/(Пиксели*Кадры) : 0.309
Размер потока : 4,67 Гбайт (89%)
Библиотека кодирования : x264 core 146 r2538 121396c
Настройки программы : cabac=1 / ref=9 / deblock=1:-3:-3 / analyse=0x3:0x113 / me=umh / subme=10 / psy=1 / psy_rd=1.00:0.15 / mixed_ref=1 / me_range=32 / chroma_me=1 / trellis=2 / 8x8dct=1 / cqm=0 / deadzone=21,11 / fast_pskip=1 / chroma_qp_offset=-3 / threads=6 / lookahead_threads=1 / sliced_threads=0 / nr=0 / decimate=1 / interlaced=0 / bluray_compat=0 / constrained_intra=0 / bframes=10 / b_pyramid=2 / b_adapt=2 / b_bias=0 / direct=1 / weightb=1 / open_gop=0 / weightp=2 / keyint=230 / keyint_min=23 / scenecut=40 / intra_refresh=0 / rc_lookahead=40 / rc=crf / mbtree=0 / crf=22.0 / qcomp=0.60 / qpmin=0 / qpmax=69 / qpstep=4 / vbv_maxrate=40000 / vbv_bufsize=50000 / crf_max=0.0 / nal_hrd=none / filler=0 / ip_ratio=1.40 / pb_ratio=1.30 / aq=1:1.00
Язык : English
Default : Да
Forced : Нет

Аудио #1
Идентификатор : 2
Формат : AC-3
Формат/Информация : Audio Coding 3
Расширение режима : CM (complete main)
Параметр Endianness формата : Big
Идентификатор кодека : A_AC3
Продолжительность : 1 ч. 42 м.
Вид битрейта : Постоянный
Битрейт : 192 Кбит/сек
Каналы : 2 канала
Расположение каналов : Front: L R
Частота : 48,0 КГц
Частота кадров : 31,250 кадров/сек (1536 spf)
Метод сжатия : С потерями
Размер потока : 141 Мбайт (3%)
Заголовок : DUB (PTP)
Язык : Russian
Default : Да
Forced : Нет

Аудио #2
Идентификатор : 3
Формат : AC-3
Формат/Информация : Audio Coding 3
Расширение режима : CM (complete main)
Параметр Endianness формата : Big
Идентификатор кодека : A_AC3
Продолжительность : 1 ч. 42 м.
Вид битрейта : Постоянный
Битрейт : 192 Кбит/сек
Каналы : 2 канала
Расположение каналов : Front: L R
Частота : 48,0 КГц
Частота кадров : 31,250 кадров/сек (1536 spf)
Метод сжатия : С потерями
Размер потока : 141 Мбайт (3%)
Заголовок : MVO (TB3)
Язык : Russian
Default : Нет
Forced : Нет

Аудио #3
Идентификатор : 4
Формат : AC-3
Формат/Информация : Audio Coding 3
Расширение режима : CM (complete main)
Параметр Endianness формата : Big
Идентификатор кодека : A_AC3
Продолжительность : 1 ч. 42 м.
Вид битрейта : Постоянный
Битрейт : 448 Кбит/сек
Каналы : 6 каналов
Расположение каналов : Front: L C R, Side: L R, LFE
Частота : 48,0 КГц
Частота кадров : 31,250 кадров/сек (1536 spf)
Метод сжатия : С потерями
Размер потока : 328 Мбайт (6%)
Заголовок : Original
Язык : English
Default : Нет
Forced : Нет

Текст
Идентификатор : 5
Формат : UTF-8
Идентификатор кодека : S_TEXT/UTF8
Идентификатор кодека/Информация : UTF-8 Plain Text
Продолжительность : 1 ч. 41 м.
Битрейт : 56 бит/сек
Count of elements : 1304
Размер потока : 42,5 Кбайт (0%)
Заголовок : английский (для слабослышащих)
Язык : English
Default : Нет
Forced : Нет
pb.wtf



Скачать Приключения няни через торрент http://s019.radikal.ru/i604/1602/83/de3bd9d78fa9.jpg Скачать фильм Приключения няни через торрент бесплантно в хорошем качестве Описание: Девушка по имени Крис Паркер даже не подозревала о том, что ей придётся быть няней. Но, пережив ссору со своим другом, Крис ... 10 10 2
Info! Золотая раздача, скачанное не засчитывается.
Торрент: Зарегистрирован [2016-02-22 07:29] · скачан: 40 раз
Статус: √ проверено
Размер: 5.27 GB
Как cкачать? Как скачать Приключения няни через торрент | qTorrent

% Раздел Тема Автор DL S | L
Фильмы до 2000 г. [ 3.03 GB ] няни / Adventures in Babysitting [1987 BDRip-AVC] DUB MVO koenig Скачать
1 | 0
Фильмы [HD 720p, 1080p] (Хороший звук DUB, MVO) [ 14.51 GB ] няни / Adventures in Babysitting [1987 BDRip 1080p by msltel] DUB MVO msltel Скачать
1 | 0

28-11-2019 20:33  

Отключить всю рекламу на сайте

22-02-2016 09:27 Приключения няни Скачать торрент  

отличный фильм особенно в детстве любил его смотретьpb.wtf



    Дорогой пользователь! Огромная просьба, поблагодарите релизера, оцените раздачу и оставьте свои комментарий, если Вы скачали Приключения няни через торрент бесплатно! Внесите свою лепту в развитие PiratBit!
    Комментировать посты могут только пользователи прошедшие не сложную регистрацию
    Показать сообщения:    

    Приключения няни через торрент
    Скачать бесплатно Приключения няни
    Приключения няни скачать торрент
    Приключения няни смотреть онлайн
    Cкачать фильм Приключения няни бесплатно
    Приключения няни скачать торрент в хорошем качестве
    Приключения няни смотреть онлайн бесплатно в хорошем качестве


    Вы не можете начинать темы
    Вы не можете отвечать на сообщения
    Вы не можете редактировать свои сообщения
    Вы не можете удалять свои сообщения
    Вы не можете голосовать в опросах
    Вы не можете прикреплять файлы к сообщениям
    Вы можете скачивать файлы