Ссылка на приватное зеркало нашего сайта всего за 1$. Внимание количество ограничено!!!

2 сезон

iTunes

1 сезон

1

iTunes

iTunes

iTunes

1 сезон

RePack

30

ИГРА 18+

pack

ВАЖНО

!!Акция!!

Alien_RageХит недели

RePack

MK11
pack

Забери бонус

RePack

jed

!!Акция!!

Alien_Rage

RePack

fifa19

RePack

Assassins Creed: Odyssey

RePack

NEED FOR SPEED™ PAYBACK

4 сезон

9 сезон

Бесстыжие 9 сезон

Все сериалы

все сериалы на PB.wtf

RePack

FAR CRY 5
  

Быстрее пули / Faster (Джордж Тиллман мл.) [2010, боевик, триллер, драма, криминал, BDRip 720p by msltel] DUB, DVO, AVO, VO (профессиональный) pb.wtf

Быстрее пули через торрент pb.wtf

Размер: 5.04 GB | Добавлен: 4 года 8 мес. назад | Торрент скачан:200 раз
Скачать  

22-02-2016 08:18 Быстрее пули Скачать торрент  

Название: Быстрее пули
Оригинальное название: Faster
Год выпуска: США
Страна: 2010
Жанр: боевик, триллер, драма, криминал
Продолжительность: 01:37:57
Перевод: дублированный, профессиональный двухголосый, авторский, профессиональный одноголосый

Режиссёр: Джордж Тиллман мл.

В ролях: Дуэйн Джонсон, Билли Боб Торнтон, Оливер Джексон-Коэн, Карла Гуджино, Мэгги Грэйс, Мун Бладгуд, Адевале Акиннуойе-Агбадже, Том Беренджер, Маурицио Лопез, Джим Гейнс, Жан Хоаг, Кортни Гейнс, Майкл Ирби, Джош Кларк, Майкл Блэйн-Розгей, Майк Эппс, Сидни С. Лиуфау, Ксандер Беркли, Аарон Бер, Джеффри Дэниэл Филлипс, Мэтт Джералд, Джонна Уолш, Киёми Кэллоуэй, Аэдин Минкс, Миколь Уайт, Клинт Дж. Палмер, Дженнифер Карпентер

Описание: После десяти лет, проведённых в тюрьме, у Драйвера одна цель - выследить и уничтожить людей, замешанных в жестоком убийстве его брата. Наконец-то обретя свободу, он готов пойти на всё, чтобы выполнить свою жестокую миссию и разделаться с теми, кто попал в его чёрный список. Испытать радость отмщения Драйверу мешают полицейский-ветеран и наёмный убийца, каждый из которых имеет свою причину свести с ним счёты. Теперь охота ведется на охотника...



Качество: BDRip 720p Сравнение с исходником
Формат: MKV
Видео: MPEG-4 AVC, 4936 Кбит/с, 1280x534, 23,976 кадра/с
Аудио 1: русский, AC3, 640 kbps, 6 ch, 48 kHz [дублированный, BD CEE]
Аудио 2: русский, AC3, 448 kbps, 6 ch, 48 kHz [профессиональный двухголосый]
Аудио 3: русский, AC3, 448 kbps, 6 ch, 48 kHz [авторский, Андрей Гаврилов]
Аудио 4: русский, AC3, 448 kbps, 6 ch, 48 kHz [профессиональный одноголосый, Александр Дасевич]
Аудио 5: английский, AC3, 448 kbps, 6 ch, 48 kHz [оригинал]
Субтитры 1: русские
Субтитры 2: английские
Общее
Уникальный идентификатор : 189898543586227756098461097879046054806 (0x8EDD210FE5B7B33890C0F1120F01E396)
Полное имя : D:\Video\Быстрее пули.2010.BDRip.720p.mkv
Формат : Matroska
Версия формата : Version 4 / Version 2
Размер файла : 5,04 Гбайт
Продолжительность : 1 ч. 37 м.
Общий поток : 7370 Кбит/сек
Дата кодирования : UTC 2016-02-22 05:28:09
Программа кодирования : mkvmerge v8.2.0 ('World of Adventure') 64bit
Библиотека кодирования : libebml v1.3.1 + libmatroska v1.4.2

Видео
Идентификатор : 1
Формат : AVC
Формат/Информация : Advanced Video Codec
Профиль формата : High@L4.1
Параметр CABAC формата : Да
Параметр ReFrames формата : 9 кадров
Идентификатор кодека : V_MPEG4/ISO/AVC
Продолжительность : 1 ч. 37 м.
Битрейт : 4936 Кбит/сек
Ширина : 1280 пикселей
Высота : 534 пикселя
Соотношение сторон : 2,40:1
Режим частоты кадров : Постоянный
Частота кадров : 23,976 (24000/1001) кадра/сек
Цветовое пространство : YUV
Субдискретизация насыщенности : 4:2:0
Битовая глубина : 8 бит
Тип развёртки : Прогрессивная
Бит/(Пиксели*Кадры) : 0.301
Размер потока : 3,38 Гбайт (67%)
Библиотека кодирования : x264 core 146 r2538 121396c
Настройки программы : cabac=1 / ref=9 / deblock=1:-3:-3 / analyse=0x3:0x113 / me=umh / subme=10 / psy=1 / psy_rd=1.00:0.15 / mixed_ref=1 / me_range=32 / chroma_me=1 / trellis=2 / 8x8dct=1 / cqm=0 / deadzone=21,11 / fast_pskip=1 / chroma_qp_offset=-3 / threads=6 / lookahead_threads=1 / sliced_threads=0 / nr=0 / decimate=1 / interlaced=0 / bluray_compat=0 / constrained_intra=0 / bframes=12 / b_pyramid=2 / b_adapt=2 / b_bias=0 / direct=1 / weightb=1 / open_gop=0 / weightp=2 / keyint=230 / keyint_min=23 / scenecut=40 / intra_refresh=0 / rc_lookahead=40 / rc=crf / mbtree=0 / crf=20.0 / qcomp=0.60 / qpmin=0 / qpmax=69 / qpstep=4 / vbv_maxrate=40000 / vbv_bufsize=50000 / crf_max=0.0 / nal_hrd=none / filler=0 / ip_ratio=1.40 / pb_ratio=1.30 / aq=1:1.00
Язык : English
Default : Да
Forced : Нет

Аудио #1
Идентификатор : 2
Формат : AC-3
Формат/Информация : Audio Coding 3
Расширение режима : CM (complete main)
Параметр Endianness формата : Big
Идентификатор кодека : A_AC3
Продолжительность : 1 ч. 37 м.
Вид битрейта : Постоянный
Битрейт : 640 Кбит/сек
Каналы : 6 каналов
Расположение каналов : Front: L C R, Side: L R, LFE
Частота : 48,0 КГц
Частота кадров : 31,250 кадров/сек (1536 spf)
Метод сжатия : С потерями
Размер потока : 448 Мбайт (9%)
Заголовок : DUB (BD CEE)
Язык : Russian
Default : Да
Forced : Нет

Аудио #2
Идентификатор : 3
Формат : AC-3
Формат/Информация : Audio Coding 3
Расширение режима : CM (complete main)
Параметр Endianness формата : Big
Идентификатор кодека : A_AC3
Продолжительность : 1 ч. 37 м.
Вид битрейта : Постоянный
Битрейт : 448 Кбит/сек
Каналы : 6 каналов
Расположение каналов : Front: L C R, Side: L R, LFE
Частота : 48,0 КГц
Частота кадров : 31,250 кадров/сек (1536 spf)
Метод сжатия : С потерями
Размер потока : 314 Мбайт (6%)
Заголовок : DVO
Язык : Russian
Default : Нет
Forced : Нет

Аудио #3
Идентификатор : 4
Формат : AC-3
Формат/Информация : Audio Coding 3
Расширение режима : CM (complete main)
Параметр Endianness формата : Big
Идентификатор кодека : A_AC3
Продолжительность : 1 ч. 37 м.
Вид битрейта : Постоянный
Битрейт : 448 Кбит/сек
Каналы : 6 каналов
Расположение каналов : Front: L C R, Side: L R, LFE
Частота : 48,0 КГц
Частота кадров : 31,250 кадров/сек (1536 spf)
Метод сжатия : С потерями
Размер потока : 314 Мбайт (6%)
Заголовок : AVO (Андрей Гаврилов)
Язык : Russian
Default : Нет
Forced : Нет

Аудио #4
Идентификатор : 5
Формат : AC-3
Формат/Информация : Audio Coding 3
Расширение режима : CM (complete main)
Параметр Endianness формата : Big
Идентификатор кодека : A_AC3
Продолжительность : 1 ч. 37 м.
Вид битрейта : Постоянный
Битрейт : 448 Кбит/сек
Каналы : 6 каналов
Расположение каналов : Front: L C R, Side: L R, LFE
Частота : 48,0 КГц
Частота кадров : 31,250 кадров/сек (1536 spf)
Метод сжатия : С потерями
Размер потока : 314 Мбайт (6%)
Заголовок : профессиональный одноголосый, Александр Дасевич
Язык : Russian
Default : Нет
Forced : Нет

Аудио #5
Идентификатор : 6
Формат : AC-3
Формат/Информация : Audio Coding 3
Расширение режима : CM (complete main)
Параметр Endianness формата : Big
Идентификатор кодека : A_AC3
Продолжительность : 1 ч. 37 м.
Вид битрейта : Постоянный
Битрейт : 448 Кбит/сек
Каналы : 6 каналов
Расположение каналов : Front: L C R, Side: L R, LFE
Частота : 48,0 КГц
Частота кадров : 31,250 кадров/сек (1536 spf)
Метод сжатия : С потерями
Размер потока : 314 Мбайт (6%)
Заголовок : Original
Язык : English
Default : Нет
Forced : Нет

Текст #1
Идентификатор : 7
Формат : UTF-8
Идентификатор кодека : S_TEXT/UTF8
Идентификатор кодека/Информация : UTF-8 Plain Text
Продолжительность : 1 ч. 33 м.
Битрейт : 54 бит/сек
Count of elements : 775
Размер потока : 37,6 Кбайт (0%)
Заголовок : русский
Язык : Russian
Default : Нет
Forced : Нет

Текст #2
Идентификатор : 8
Формат : UTF-8
Идентификатор кодека : S_TEXT/UTF8
Идентификатор кодека/Информация : UTF-8 Plain Text
Продолжительность : 1 ч. 31 м.
Битрейт : 39 бит/сек
Count of elements : 811
Размер потока : 26,3 Кбайт (0%)
Заголовок : английский
Default : Нет
Forced : Нет
pb.wtf



Скачать Быстрее пули через торрент http://s020.radikal.ru/i705/1602/51/2f3d2e97ea8d.jpg Скачать фильм Быстрее пули через торрент бесплантно в хорошем качестве Описание: После десяти лет, проведённых в тюрьме, у Драйвера одна цель - выследить и уничтожить людей, замешанных в жестоком убийстве его ... 10 10 13
Info! Золотая раздача, скачанное не засчитывается.
Торрент: Зарегистрирован [2016-02-22 08:18] · скачан: 200 раз
Статус: √ проверено
Размер: 5.04 GB
Как cкачать? Как скачать Быстрее пули через торрент | qTorrent

% Раздел Тема Автор DL S | L
Фильмы [HD 720p, 1080p] (Хороший звук DUB, MVO) [ 5.8 GB ] Быстрее пули / Faster [2010 BDRip 1080p HEVC ] Мичман37 Скачать
1 | 0
Фильмы [HD 720p, 1080p] (Хороший звук DUB, MVO) [ 13.27 GB ] Быстрее пули / Faster [2010 BDRip 1080p by msltel] DUB DVO AVO VO msltel Скачать
1 | 0
Фильмы [HD 720p, 1080p] (Хороший звук DUB, MVO) [ 11.69 GB ] Быстрее пули / Faster [2010 BDRip 1080p] PoBeP37 Скачать
1 | 0
Фильмы 2006-2008 [ 790 MB ] Быстрее пули / Faster [2010 HDRip] alexandr1974 Скачать
1 | 0
Фильмы [HD 720p, 1080p] (Хороший звук DUB, MVO) [ 5.53 GB ] Быстрее пули / Faster [Джордж Тиллман Мл.] [2010 BDRip 720p] Romeo0502 Скачать
1 | 0
Фильмы 2010 [ 1.37 GB ] Быстрее пули / Faster [2010 HDRip лицензия] Чупачупсик Скачать
2 | 0
Фильмы (DVD фильмы) [ 6.08 GB ] Быстрее пули / Faster [2010 DVD9] R5 «Columbia/Sony» voovaz Скачать
1 | 0

28-11-2019 20:33  

Отключить всю рекламу на сайте

26-02-2016 07:27 Быстрее пули Скачать торрент  

Классное кино незря потрачено время.pb.wtf



    Дорогой пользователь! Огромная просьба, поблагодарите релизера, оцените раздачу и оставьте свои комментарий, если Вы скачали Быстрее пули через торрент бесплатно! Внесите свою лепту в развитие PiratBit!
    Комментировать посты могут только пользователи прошедшие не сложную регистрацию
    Показать сообщения:    

    Быстрее пули через торрент
    Скачать бесплатно Быстрее пули
    Быстрее пули скачать торрент
    Быстрее пули смотреть онлайн
    Cкачать фильм Быстрее пули бесплатно
    Быстрее пули скачать торрент в хорошем качестве
    Быстрее пули смотреть онлайн бесплатно в хорошем качестве


    Вы не можете начинать темы
    Вы не можете отвечать на сообщения
    Вы не можете редактировать свои сообщения
    Вы не можете удалять свои сообщения
    Вы не можете голосовать в опросах
    Вы не можете прикреплять файлы к сообщениям
    Вы можете скачивать файлы