Ссылка на приватное зеркало всего за 1$. Внимание количество ограничено!!!

iTunes

iTunes

iTunes

1

iTunes

iTunes

iTunes

iTunes

iTunes

30
pack

Новость дня

ВАЖНО

!!Акция!!

Alien_RageХит недели

RePack

Resident Evil 21

ИГРА 18+

pack

RePack

jed

!!Акция!!

Alien_Rage

RePack

fifa19

RePack

Assassins Creed: Odyssey

RePack

NEED FOR SPEED™ PAYBACK

4 сезон

9 сезон

Бесстыжие 9 сезон

Все сериалы

все сериалы на PB.wtf

RePack

FAR CRY 5
  

Правнуки (Антон Гребенщиков) [2015, драма, HDRip, Оригинальный] pb.wtf

Правнуки через торрент pb.wtf

Размер: 1.37 GB | Добавлен: 4 года 3 мес. назад | Торрент скачан:807 раз
Скачать  

22-02-2016 12:10 Правнуки Скачать торрент  


Правнуки
««Я так и не успел поговорить с дедом...»»

ИНФОРМАЦИЯ:
Год выпуска:2015
Страна: Россия
Жанр: драма
Продолжительность: 01:20:16
Перевод: Оригинальный
Режиссер: Антон Гребенщиков

В Ролях:


Александр Барановский, Дмитрий Мазуров, Антон Гребенщиков, Светлана Грунина, Платон Харитонов, Павел Харин, Григорий Шустер, Людмила Трошина, Виктория Левченко, Тамара Кочержинская, Екатерина Спирина, Вадим Тихоненко

Описание:
Двое молодых друзей на 9 мая узнают о том, что далеко на другом конце страны нашлись останки их прадедов, которые пропали на войне. Прежде, чем отправиться в дальний путь, им предстоит дать ответ самим себе на многие вопросы, о которых забывать не следует...


ТЕХ.ДАННЫЕ:
Качество: HDRip
Формат: AVI
Видео: XviD, 720x304 (2.35:1), 2143 kbps, 24 fps, 0,408 bpp
Аудио: AC3 / 2.0 / 48 kHz / 192 kbps / 16 bit


General
Complete name : D:\Торенты\Pravnuki.2015.HDRip.avi
Format : AVI
Format/Info : Audio Video Interleave
File size : 1.37 GiB
Duration : 1h 20mn
Overall bit rate : 2 441 Kbps
Writing application : VirtualDubMod 1.5.10.3 | www.virtualdub-fr.org || (build 2550/release)
Writing library : VirtualDubMod build 2550/release

Video
ID : 0
Format : MPEG-4 Visual
Format profile : Advanced Simple@L5
Format settings, BVOP : 2
Format settings, QPel : No
Format settings, GMC : No warppoints
Format settings, Matrix : Default (MPEG)
Codec ID : XVID
Codec ID/Hint : XviD
Duration : 1h 20mn
Bit rate : 2 143 Kbps
Width : 720 pixels
Height : 304 pixels
Display aspect ratio : 2.35:1
Frame rate : 24.000 fps
Color space : YUV
Chroma subsampling : 4:2:0
Bit depth : 8 bits
Scan type : Progressive
Compression mode : Lossy
Bits/(Pixel*Frame) : 0.408
Stream size : 1.20 GiB (88%)
Writing library : XviD 1.2.1 (UTC 2008-12-04)

Audio
ID : 1
Format : AC-3
Format/Info : Audio Coding 3
Mode extension : CM (complete main)
Codec ID : 2000
Duration : 1h 20mn
Bit rate mode : Constant
Bit rate : 192 Kbps
Channel(s) : 2 channels
Channel positions : Front: L R
Sampling rate : 48.0 KHz
Bit depth : 16 bits
Compression mode : Lossy
Stream size : 110 MiB (8%)
Alignment : Split accross interleaves
Скриншоты:

© Оформление by .::Ворон::.
pb.wtf



Скачать Правнуки через торрент http://pic.kartinco.top/images/6/ordi9.jpg Скачать фильм Правнуки через торрент бесплантно в хорошем качестве Описание: Двое молодых друзей на 9 мая узнают о том, что далеко на другом конце страны нашлись останки их прадедов, которые пропали на ... 8.5 10 24
Info! Золотая раздача, скачанное не засчитывается.
Торрент: Зарегистрирован [2016-02-22 12:10] · скачан: 807 раз
Статус: T временная
Размер: 1.37 GB
Как cкачать? Как скачать Правнуки через торрент | qTorrent

28-11-2019 20:33  

Отключить всю рекламу на сайте

23-02-2016 11:43 Правнуки Скачать торрент  

Ворон, спасибо , такие фильмы нужно смотреть всем!pb.wtf



23-02-2016 19:00 Правнуки Скачать торрент  

спасибо за раздачу! Фильм тронул сильно!!! побольше бы таких Фильмов снималиpb.wtf



    Дорогой пользователь! Огромная просьба, поблагодарите релизера, оцените раздачу и оставьте свои комментарий, если Вы скачали Правнуки через торрент бесплатно! Внесите свою лепту в развитие PiratBit!
    Комментировать посты могут только пользователи прошедшие не сложную регистрацию
    Показать сообщения:    

    Правнуки через торрент
    Скачать бесплатно Правнуки
    Правнуки скачать торрент
    Правнуки смотреть онлайн
    Cкачать фильм Правнуки бесплатно
    Правнуки скачать торрент в хорошем качестве
    Правнуки смотреть онлайн бесплатно в хорошем качестве


    Вы не можете начинать темы
    Вы не можете отвечать на сообщения
    Вы не можете редактировать свои сообщения
    Вы не можете удалять свои сообщения
    Вы не можете голосовать в опросах
    Вы не можете прикреплять файлы к сообщениям
    Вы можете скачивать файлы