Ссылка на приватное зеркало нашего сайта всего за 1$. Внимание количество ограничено!!!

2 сезон

iTunes

1 сезон

1

2 сезон

2 сезон

iTunes

1 сезон

RePack

30

Новинка

ВАЖНО

ИГРА 18+

pack

RePack

MK11
pack

Забери бонус

RePack

jed

!!Акция!!

Alien_Rage

RePack

fifa19

RePack

Assassins Creed: Odyssey

RePack

NEED FOR SPEED™ PAYBACK

4 сезон

9 сезон

Бесстыжие 9 сезон

Все сериалы

все сериалы на PB.wtf

RePack

FAR CRY 5
  

Специалист по выживанию / The Survivalist (Стивен Финглтон) [2015 г., фантастика, триллер, драма, WEB-DLRip (AVC)] DVO [Parovoz Production] VO [zamez](Без рекламы) pb.wtf

Специалист по выживанию через торрент pb.wtf

Размер: 1.45 GB | Добавлен: 4 года 9 мес. назад | Торрент скачан:147 раз
Скачать  

22-02-2016 21:23 Специалист по выживанию Скачать торрент  

Специалист по выживанию / The Survivalist
Год выпуска » 2015
Страна » Великобритания, Fyzz Facility Film One, The thefyzz
Жанр » Фантастика, триллер, драма
Продолжительность » 01:43:55
Перевод » Любительский двухголосый, любительский одноголосый (zamez aka Вячеслав Замез)
Субтитры » Нет

В ролях
» Миа Гот, Мартин МакКанн, Эндрю Симпсон, Дуглас Расселл, Киери Ноддингс, Олуэн Фуэр, Райан МакПарланд, Киаран Флинн

Режиссёр
» Стивен Финглтон
ОПИСАНИЕ:
» Ближайшее будущее. После того как перенаселение истощило мировые ресурсы, количество жителей Земли существенно уменьшилось, а от индустриальных запасов еды, как и от цивилизованного существования, не осталось и следа. Выживальщик - это мужчина, который ищет проживание в лесах Северной Ирландии. Он явно демонстрирует, что ему никто не нужен и он никого не хочет видеть в своей жизни. Но когда появляются две женщины, мать и дочь, сексуальное влечение берет верх. И в результате образуется странная компания из трех человек
• Качество » WEB-DLRip (AVC)
• Формат » MKV
• Видео кодек » AVC
• Аудио кодек » AC3
• Видео » MPEG-4 AVC, 1621 Кбит/с, 1024x426,24,000 кадра/сек
• Аудио » Русский (DVO) (AC-3 / 2 ch / 192 kbps /16 bit )
• Аудио » Русский (VO) (AC-3 / 2 ch / 192 kbps /16 bit )


Общее
Уникальный идентификатор : 220156633276689059908085341754004437818 (0xA5A0A01045DFEED3A60284F83A817B3A)
Полное имя : C:\Users\DRON & LeXuZ\Desktop\Специалист по выживанию.2015.mkv
Формат : Matroska
Версия формата : Version 2
Размер файла : 1,45 Гбайт
Продолжительность : 1 ч. 43 м.
Общий поток : 2006 Кбит/сек
Дата кодирования : UTC 2016-02-21 16:39:09
Программа кодирования : mkvmerge v5.3.0 ('I could have danced') built on Feb 9 2012 10:38:07
Библиотека кодирования : libebml v1.2.3 + libmatroska v1.3.0
Attachment : Yes

Видео
Идентификатор : 1
Формат : AVC
Формат/Информация : Advanced Video Codec
Профиль формата : High@L4.1
Параметр CABAC формата : Да
Параметр ReFrames формата : 10 кадров
Идентификатор кодека : V_MPEG4/ISO/AVC
Продолжительность : 1 ч. 43 м.
Битрейт : 1621 Кбит/сек
Ширина : 1024 пикселя
Высота : 426 пикселей
Соотношение сторон : 2,40:1
Режим частоты кадров : Постоянный
Частота кадров : 24,000 кадра/сек
Цветовое пространство : YUV
Субдискретизация насыщенности : 4:2:0
Битовая глубина : 8 бит
Тип развёртки : Прогрессивная
Бит/(Пиксели*Кадры) : 0.155
Размер потока : 1,14 Гбайт (79%)
Библиотека кодирования : x264 core 146 r2538 121396c
Настройки программы : cabac=1 / ref=10 / deblock=1:-1:-1 / analyse=0x3:0x133 / me=umh / subme=9 / psy=1 / psy_rd=1.00:0.10 / mixed_ref=1 / me_range=32 / chroma_me=1 / trellis=2 / 8x8dct=1 / cqm=0 / deadzone=21,11 / fast_pskip=0 / chroma_qp_offset=-3 / threads=6 / lookahead_threads=2 / sliced_threads=0 / nr=0 / decimate=0 / interlaced=0 / bluray_compat=0 / constrained_intra=0 / bframes=8 / b_pyramid=2 / b_adapt=2 / b_bias=0 / direct=3 / weightb=1 / open_gop=0 / weightp=2 / keyint=240 / keyint_min=23 / scenecut=40 / intra_refresh=0 / rc=2pass / mbtree=0 / bitrate=1621 / ratetol=1.0 / qcomp=0.60 / qpmin=0 / qpmax=69 / qpstep=4 / cplxblur=20.0 / qblur=0.5 / ip_ratio=1.40 / pb_ratio=1.30 / aq=1:0.50
Default : Да
Forced : Нет

Аудио #1
Идентификатор : 2
Формат : AC-3
Формат/Информация : Audio Coding 3
Расширение режима : CM (complete main)
Параметр Endianness формата : Big
Идентификатор кодека : A_AC3
Продолжительность : 1 ч. 43 м.
Вид битрейта : Постоянный
Битрейт : 192 Кбит/сек
Каналы : 2 канала
Расположение каналов : Front: L R
Частота : 48,0 КГц
Битовая глубина : 16 бит
Метод сжатия : С потерями
Размер потока : 142 Мбайт (10%)
Заголовок : Любительский двухголосый (Parovoz Production)
Язык : Russian
Default : Да
Forced : Нет

Аудио #2
Идентификатор : 3
Формат : AC-3
Формат/Информация : Audio Coding 3
Расширение режима : CM (complete main)
Параметр Endianness формата : Big
Идентификатор кодека : A_AC3
Продолжительность : 1 ч. 43 м.
Вид битрейта : Постоянный
Битрейт : 192 Кбит/сек
Каналы : 2 канала
Расположение каналов : Front: L R
Частота : 48,0 КГц
Битовая глубина : 16 бит
Метод сжатия : С потерями
Размер потока : 142 Мбайт (10%)
Заголовок : Любительский одноголосый (Вячеслав Замез aka zamez)
Язык : Russian
Default : Нет
Forced : Нет
скриншот   скриншот   скриншот   скриншот  
• Релиз от: pb.wtf



Скачать Специалист по выживанию через торрент http://pic1.kartinco.top/images/10/qjilv.jpg Скачать фильм Специалист по выживанию через торрент бесплантно в хорошем качестве ОПИСАНИЕ: » Ближайшее будущее. После того как перенаселение истощило мировые ресурсы, количество жителей Земли существенно уменьшилось, а ... 8.4 10 9
Торрент: Зарегистрирован [2016-02-22 21:23] · скачан: 147 раз
Статус: T временная
Размер: 1.45 GB
Как cкачать? Как скачать Специалист по выживанию через торрент | qTorrent

% Раздел Тема Автор DL S | L
T Фильмы 2015 (Звук TS, Cam, VO, DVO) [ 1.46 GB ] Специалист по выживанию / The Survivalist [2015 WEB-DLRip] DVO [Parovoz Production] Russian Mafia Скачать
1 | 0
T Фильмы 2015 (Звук TS, Cam, VO, DVO) [ 1.46 GB ] Сёрвайвелист - специалист по выживанию / The Survivalist [2015 WEB-DLRip] VO Ворон Скачать
1 | 0

28-11-2019 20:33  

Отключить всю рекламу на сайте

23-02-2016 02:11 Специалист по выживанию Скачать торрент  

посмотрел-фильмец интересный-спасибоpb.wtf



23-02-2016 04:41 Специалист по выживанию Скачать торрент  

Цитата:

Специалист по выживанию / The Survivalist (Стивен Финглтон) [2015 г., фантастика, триллер, драма, WEB-DLRip (AVC)] DVO [Parovoz Production] VO [zamez](Без рекламы)

Мутатень!!!!!pb.wtf



23-02-2016 08:46 Специалист по выживанию Скачать торрент  

Коменты в студию.Плизpb.wtf



10-03-2016 16:28 Специалист по выживанию Скачать торрент  

Экшена маловатоpb.wtf



    Дорогой пользователь! Огромная просьба, поблагодарите релизера, оцените раздачу и оставьте свои комментарий, если Вы скачали Специалист по выживанию через торрент бесплатно! Внесите свою лепту в развитие PiratBit!
    Комментировать посты могут только пользователи прошедшие не сложную регистрацию
    Показать сообщения:    

    Специалист по выживанию через торрент
    Скачать бесплатно Специалист по выживанию
    Специалист по выживанию скачать торрент
    Специалист по выживанию смотреть онлайн
    Cкачать фильм Специалист по выживанию бесплатно
    Специалист по выживанию скачать торрент в хорошем качестве
    Специалист по выживанию смотреть онлайн бесплатно в хорошем качестве


    Вы не можете начинать темы
    Вы не можете отвечать на сообщения
    Вы не можете редактировать свои сообщения
    Вы не можете удалять свои сообщения
    Вы не можете голосовать в опросах
    Вы не можете прикреплять файлы к сообщениям
    Вы можете скачивать файлы