Ссылка на приватное зеркало всего за 1$. Внимание количество ограничено!!!

iTunes

1+1

iTunes

мы

WEB-DL

1

iTunes

Чернобыль

iTunes

Ральф против интернета

Лицензия

ПШазам

Лицензия

Оно 2

Лицензия

30
pack

Вам бонус

ВАЖНО

!!Акция!!

Alien_RageХит недели

RePack

Resident Evil 21

ИГРА 18+

pack

RePack

jed

!!Акция!!

Alien_Rage

RePack

fifa19

RePack

Assassins Creed: Odyssey

RePack

NEED FOR SPEED™ PAYBACK

3 сезон

9 сезон

Бесстыжие 9 сезон

Все сериалы

все сериалы на PB.wtf

RePack

FAR CRY 5
Ребята, катастрофически не хватает 1900р. для оплаты серверов за Октябрь (всвязи с блокировками трафик упал в 3 раза), 1-2р., выручайте.
  

Свадьба Кречинского (Алексей Золотницкий) [1953, СССР, комедия, DVDRip от AVP Studio] pb.wtf

Свадьба Кречинского через торрент pb.wtf

Размер: 2.18 GB | Добавлен: 3 года 9 мес. назад | Торрент скачан:21 раз
Скачать  

23-02-2016 09:45 Свадьба Кречинского Скачать торрент  

Свадьба Кречинского
Страна: СССР
Производство: Киностудия им. Горького

Жанр: комедия
Год выпуска: 1953
Продолжительность: 02:33:24

Перевод: Не требуется
Cубтитры: нет
Оригинальная аудиодорожка: русский

Режиссер: Алексей Золотницкий

В ролях:
Евгений Агуров, Марина Кузнецова, Ольга Викландт, Борис Смирнов, Михаил Названов, Павел Тарасов, Георгий Петровский, Степан Бубнов, Вячеслав Новиков, Юрий Фомичёв, Сергей Тихонравов...
Полный список актёров

Описание:
По одноименной пьесе А. В. Сухово-Кобылина. Спектакль Московского драматического театра имени А.С.Пушкина.
Заядлый картежник и шулер Михаил Васильевич Кречинский проигрывает крупную сумму денег. Кредиторы одолевают его со всех сторон. Единственный выход - женитьба на богатой девушке. Чтобы получить благословение отца и ускорить свадьбу, Кречинский идет на обман...

Источник: DVD9 R5
Качество видео: DVDRip
Формат видео: AVI

Видео: 688x512 (4:3), 25 fps, XviD ~ 1829 kbps avg, 0.208 bit/pixel
Аудио: 48 kHz, Dolby Digital AC3 2.0, 192 kbps

Раздача от:
Общее
Полное имя : Svadba.Krechinskogo.1953.DVDRip_[New-team]_by_AVP_Studio.avi
Формат : AVI
Формат/Информация : Audio Video Interleave
Профиль формата : OpenDML
Размер файла : 2,18 Гбайт
Продолжительность : 2 ч. 33 м.
Общий поток : 2034 Кбит/сек
Программа кодирования : VirtualDubMod 1.5.10.3 | www.virtualdub-fr.org || (build 2550/release)
Библиотека кодирования : VirtualDubMod build 2550/release

Видео
Идентификатор : 0
Формат : MPEG-4 Visual
Профиль формата : Advanced Simple@L5
Параметр BVOP формата : 1
Параметр QPel формата : Нет
Параметр GMC формата : Без точки перехода
Параметр матрицы формата : Выборочная
Идентификатор кодека : XVID
Идентификатор кодека/Подсказка : XviD
Продолжительность : 2 ч. 33 м.
Битрейт : 1829 Кбит/сек
Ширина : 688 пикселей
Высота : 512 пикселей
Соотношение сторон : 4:3
Частота кадров : 25,000 кадров/сек
Цветовое пространство : YUV
Субдискретизация насыщенности : 4:2:0
Битовая глубина : 8 бит
Тип развёртки : Прогрессивная
Метод сжатия : С потерями
Бит/(Пиксели*Кадры) : 0.208
Размер потока : 1,96 Гбайт (90%)
Библиотека кодирования : XviD 1.2.1 (UTC 2008-12-04)

Аудио
Идентификатор : 1
Формат : AC-3
Формат/Информация : Audio Coding 3
Расширение режима : CM (complete main)
Параметр Endianness формата : Big
Идентификатор кодека : 2000
Продолжительность : 2 ч. 33 м.
Вид битрейта : Постоянный
Битрейт : 192 Кбит/сек
Каналы : 2 канала
Расположение каналов : Front: L R
Частота : 48,0 КГц
Частота кадров : 31,250 кадров/сек (1536 spf)
Метод сжатия : С потерями
Размер потока : 211 Мбайт (9%)
Выравнивание : Разделение по промежуткам
Продолжительность промежутка : 40 мс. (1,00 видеокадр)
Время предзагрузки промежутка : 500 мс
pb.wtf



Скачать Свадьба Кречинского через торрент http://s018.radikal.ru/i525/1602/fa/211306880936.png Скачать фильм Свадьба Кречинского через торрент бесплантно в хорошем качестве Описание:По одноименной пьесе А. В. Сухово-Кобылина. Спектакль Московского драматического театра имени А.С.Пушкина.Заядлый картежник и ... 10 10 1
Info! Золотая раздача, скачанное не засчитывается.
Торрент: Зарегистрирован [2016-02-23 09:45] · скачан: 21 раз
Статус: √ проверено
Размер: 2.18 GB
Как cкачать? Как скачать Свадьба Кречинского через торрент | qTorrent

% Раздел Тема Автор DL S | L
Кино СССР [ 2.18 GB ] Свадьба Кречинского [1953 СССР DVDRip-AVC от AVP Studio] AVP Studio Скачать
1 | 0
Кино СССР [ 1.09 GB ] Свадьба Кречинского [1953 СССР DVDRip от AVP Studio] AVP Studio Скачать
1 | 0

28-11-2019 20:33  

Отключить всю рекламу на сайте

    Дорогой пользователь! Огромная просьба, поблагодарите релизера, оцените раздачу и оставьте свои комментарий, если Вы скачали Свадьба Кречинского через торрент бесплатно! Внесите свою лепту в развитие PiratBit!
    Комментировать посты могут только пользователи прошедшие не сложную регистрацию
    Показать сообщения:    

    Свадьба Кречинского через торрент
    Скачать бесплатно Свадьба Кречинского
    Свадьба Кречинского скачать торрент
    Свадьба Кречинского смотреть онлайн
    Cкачать фильм Свадьба Кречинского бесплатно
    Свадьба Кречинского скачать торрент в хорошем качестве
    Свадьба Кречинского смотреть онлайн бесплатно в хорошем качестве


    Вы не можете начинать темы
    Вы не можете отвечать на сообщения
    Вы не можете редактировать свои сообщения
    Вы не можете удалять свои сообщения
    Вы не можете голосовать в опросах
    Вы не можете прикреплять файлы к сообщениям
    Вы можете скачивать файлы