Всегда рабочее зеркало без VPN и Proxy просто перед .vidak.icu напиши любое слово или цифру, Пример http://mji2.vidak.icu

Лицензия

MVO

1 сезон

1

1 сезон

iTunes

1 сезон

13

1 сезон

Deluxe

pack

Рекомендуем

Repack

30

ВАЖНО

RePack

MK11

RePack

jed

RePack

fifa19

RePack

RDR2

RePack

NEED FOR SPEED™ PAYBACK

Кинопоиск HD

6 сезон

 Острые козырьки 6 сезон

Все сериалы

все сериалы на PB.wtf

RePack

FAR CRY 5
  
Magnet ссылка

Леонид Куравлев. Афоня и другие (Георгий Ананов) [2016 г., Документальный, HDTV (1080p), Оригинальный] pb.wtf

Леонид Куравлев. Афоня и другие через торрент pb.wtf

Размер: 2.65 GB | Добавлен: 6 лет 5 мес. назад | Торрент скачан:18 раз
Смотреть онлайн Леонид Куравлев. Афоня и другие | Скачать    Ребята, помогите собрать деньги на оплату серверов!!!

23-02-2016 10:56 Леонид Куравлев. Афоня и другие Скачать торрент  

Леонид Куравлев. Афоня и другие
Год выпуска: 2016
Страна: Россия
Жанр: Документальный
Продолжительность: 00:49:37
Перевод: Оригинальный
Субтитры: Нет

Режиссер: Георгий Ананов

Описание: У Леонида Куравлёва богатая фильмография – почти двести ролей. Но ни Жоржем Милославским, ни Хомой Брутом, ни Робинзоном его на улице не называют. А вот Афоней – запросто. Нередко актёры перед съёмками специально погружаются в среду, которая описана в сценарии. Если предстоит играть хирурга - часами стоят в операционной, если учителя – сидят на уроках в школе. Леониду Куравлёву не пришлось погружаться. "Создавать себя алкоголиком не пришлось. Я из очень простых корней, я москвич, но на окраине жил у тетки - рядом с Измайловым. Там был такой хулиганский район – так что таких вот как Афоня я насмотрелся" - говорит актёр. Также мы покажем уникальные кадры, которые нам предоставил житель деревни Диево-Городище Ярославской области Ювеналий Лебедев. Когда в его деревне снимался "Афоня", Ювеналий снимал этот процесс на собственную кинокамеру! Так, он запечатлел, как Савелий Крамаров на тракторе врезался в столб. Это видео зрители увидят впервые!

Качество: HDTV (1080p)
Формат: TS
Видео кодек: AVC
Аудио кодек: AC3-MP2
Видео: MPEG-4 AVC, (1920x1080),6 679 Кбит/с, 25.000 кадра/сек
Аудио#1: AC3, 6 ch,384 kbps (Rus) 48.0 KHz Оригинал
Аудио#2: MP2, 2 ch,192 kbps (Rus) 48.0 KHz Оригинал
скриншот   скриншот   скриншот  

Тип потока: Видео
Длительность: 00:49:36
Кодек: AVC
Кодек/описание: Advanced Video Codec
Кодек/профиль: [email protected]
Кодек/ID: 27
Кодек/CABAC: Yes
Кодек/ReFrames: 3 frames
Размеры изображения: 1920 x 1080 (16:9)
Частота кадров: 25.000 fps
Размер потока: 2.31 GiB (87%)
Битрейт: 6 679 Kbps
Стандарт: Component
Цветовое пространство: YUV
Тип развёртки: Interlaced
Колориметрия: 4:2:0
Глубина: 8 bits
:
Тип потока: Звук #1
Язык: Russian
Длительность: 00:49:36.832
Кодек: AC-3
Кодек/описание: Audio Coding 3
Кодек/ID: 6
Частота дискретизации: 48.0 KHz
Каналов: 6 channels
Битрейт: 384 Kbps
Битрейт/тип: Constant
Размер потока: 136 MiB (5%)
Глубина: 16 bits
Метод сжатия: Lossy
:
Тип потока: Звук #2
Язык: Russian
Длительность: 00:49:36.912
Кодек: MPEG Audio
Кодек/профиль: Layer 2
Кодек/ID: 3
Частота дискретизации: 48.0 KHz
Каналов: 2 channels
Битрейт: 192 Kbps
Битрейт/тип: Constant
Размер потока: 68.1 MiB (3%)
Метод сжатия: Lossy

pb.wtf



Скачать Леонид Куравлев. Афоня и другие через торрент https://pic1.kartinco.top/images/10/fuh14.jpg Скачать, смотреть онлайн Леонид Куравлев. Афоня и другие бесплантно в хорошем качестве Описание: У Леонида Куравлёва богатая фильмография – почти двести ролей. Но ни Жоржем Милославским, ни Хомой Брутом, ни Робинзоном его на ... 10 10 5
Торрент: Зарегистрирован [2016-02-23 10:56] · скачан: 18 раз
Статус: √ проверено
Размер: 2.65 GB
Как cкачать? Как скачать Леонид Куравлев. Афоня и другие через торрент | UTorrent

28-11-2019 20:33  

Отключить вcю реклaмy на сайте

    Дорогой пользователь! Огромная просьба, поблагодарите релизера, оцените раздачу и оставьте свои комментарий, если Вы скачали Леонид Куравлев. Афоня и другие через торрент бесплатно!
    Комментировать посты могут только пользователи прошедшие не сложную регистрацию
    Показать сообщения:    

    Леонид Куравлев. Афоня и другие через торрент
    Скачать бесплатно Леонид Куравлев. Афоня и другие
    Леонид Куравлев. Афоня и другие скачать торрент
    Леонид Куравлев. Афоня и другие смотреть онлайн
    Cкачать фильм Леонид Куравлев. Афоня и другие бесплатно
    Леонид Куравлев. Афоня и другие скачать торрент в хорошем качестве
    Леонид Куравлев. Афоня и другие смотреть онлайн бесплатно в хорошем качестве


    Вы не можете начинать темы
    Вы не можете отвечать на сообщения
    Вы не можете редактировать свои сообщения
    Вы не можете удалять свои сообщения
    Вы не можете голосовать в опросах
    Вы не можете прикреплять файлы к сообщениям
    Вы можете скачивать файлы