Ссылка на приватное зеркало нашего сайта всего за 1$. Внимание количество ограничено!!!

2 сезон

iTunes

1 сезон

1

2 сезон

2 сезон

iTunes

1 сезон

RePack

30

Ultimate

ВАЖНО

ИГРА 18+

pack

RePack

MK11
pack

Забери бонус

RePack

jed

!!Акция!!

Alien_Rage

RePack

fifa19

RePack

Assassins Creed: Odyssey

RePack

NEED FOR SPEED™ PAYBACK

4 сезон

9 сезон

Бесстыжие 9 сезон

Все сериалы

все сериалы на PB.wtf

RePack

FAR CRY 5
  

Портниха / The Dressmaker ( Джослин Мурхаус) [2015, драма, BDRip 720p] DVO pb.wtf

Портниха через торрент pb.wtf

Размер: 5.62 GB | Добавлен: 4 года 9 мес. назад | Торрент скачан:91 раз
Скачать  

24-02-2016 18:22 Портниха Скачать торрент  

Информация о фильме

Название: Портниха

Оригинальное название: The Dressmaker

Год выхода: 2015

Выпущено: Австралия / Amazon Studios, Apollo Media, Film Art Media, Screen Australia

Продолжительность: 01:58:52

Озвучивание: Любительское (двухголосое) [den904 & DeadSno]

Жанр: драма

Режиссер: Джослин Мурхаус

В ролях: Кейт Уинслет, Лиам Хемсворт, Сара Снук, Хьюго Уивинг, Кэролайн Гудолл, Джуди Дэвис, Керри Фокс, Ребекка Гибни, Шэйн Джейкобсон, Хейли Магнус

Описание: Гламурная женщина возвращается в родной город, откуда уехала еще ребенком после обвинения в убийстве. Жители городка сначала не принимают ее, но постепенно она завоевывает расположение местных дам благодаря остроумию и умению кроить безупречные наряды.


Примечание: Релиз без рекламы.



Файл
Качество: BDRip 720p
Формат: MKV
Видео: MPEG-4 AVC, 5071 kb/s, 1280x536, 23,976 fps
Аудио1: Russian: AC3, 192 kb/s (2 ch) , 48.0 KHz
Аудио2: English: DTS, 1509 kb/s (6 ch), 48.0 KHz
Format : Matroska

Format version : Version 2

File size : 5.62 GiB

Duration : 1h 58mn

Overall bit rate : 6 774 Kbps

Encoded date : UTC 2016-02-24 17:42:34

Writing application : mkvmerge v7.8.0 ('River Man') 32bit built on Apr 3 2015 12:11:22

Writing library : libebml v1.3.1 + libmatroska v1.4.2

Video

ID : 1

Format : AVC

Format/Info : Advanced Video Codec

Format profile : High@L4.1

Format settings, CABAC : Yes

Format settings, ReFrames : 5 frames

Codec ID : V_MPEG4/ISO/AVC

Duration : 1h 58mn

Bit rate : 5 071 Kbps

Width : 1 280 pixels

Height : 536 pixels

Display aspect ratio : 2.40:1

Frame rate mode : Constant

Frame rate : 23.976 fps

Color space : YUV

Chroma subsampling : 4:2:0

Bit depth : 8 bits

Scan type : Progressive

Bits/(Pixel*Frame) : 0.308

Stream size : 4.10 GiB (73%)

Writing library : x264 core 148 r2665 a01e339

Encoding settings : cabac=1 / ref=5 / deblock=1:0:0 / analyse=0x3:0x133 / me=umh / subme=7 / psy=1 / psy_rd=1.00:0.00 / mixed_ref=1 / me_range=16 / chroma_me=1 / trellis=1 / 8x8dct=1 / cqm=0 / deadzone=21,11 / fast_pskip=0 / chroma_qp_offset=-2 / threads=17 / lookahead_threads=2 / sliced_threads=0 / nr=0 / decimate=1 / interlaced=0 / bluray_compat=0 / constrained_intra=0 / bframes=3 / b_pyramid=2 / b_adapt=1 / b_bias=0 / direct=1 / weightb=1 / open_gop=0 / weightp=2 / keyint=250 / keyint_min=23 / scenecut=40 / intra_refresh=0 / rc_lookahead=40 / rc=2pass / mbtree=1 / bitrate=5071 / ratetol=1.0 / qcomp=0.60 / qpmin=0 / qpmax=69 / qpstep=4 / cplxblur=20.0 / qblur=0.5 / ip_ratio=1.40 / aq=1:1.00

Language : English

Default : Yes

Forced : No

Audio #1

ID : 2

Format : AC-3

Format/Info : Audio Coding 3

Mode extension : CM (complete main)

Format settings, Endianness : Big

Codec ID : A_AC3

Duration : 1h 58mn

Bit rate mode : Constant

Bit rate : 192 Kbps

Channel(s) : 2 channels

Channel positions : Front: L R

Sampling rate : 48.0 KHz

Bit depth : 16 bits

Compression mode : Lossy

Stream size : 163 MiB (3%)

Language : Russian

Default : Yes

Forced : No

Audio #2

ID : 3

Format : DTS

Format/Info : Digital Theater Systems

Mode : 16

Format settings, Endianness : Big

Codec ID : A_DTS

Duration : 1h 58mn

Bit rate mode : Constant

Bit rate : 1 509 Kbps

Channel(s) : 6 channels

Channel positions : Front: L C R, Side: L R, LFE

Sampling rate : 48.0 KHz

Bit depth : 24 bits

Compression mode : Lossy

Stream size : 1.25 GiB (22%)

Language : English

Default : No

Forced : No
pb.wtf



Скачать Портниха через торрент http://i75.fastpic.ru/big/2016/0224/af/4a72e6063e07f3dd1edaaf9d439bc7af.jpg Скачать фильм Портниха через торрент бесплантно в хорошем качестве Описание: Гламурная женщина возвращается в родной город, откуда уехала еще ребенком после обвинения в убийстве. Жители городка сначала не ... 7 10 3
Торрент: Зарегистрирован [2016-02-24 18:22] · скачан: 91 раз
Статус: T временная
Размер: 5.62 GB
Как cкачать? Как скачать Портниха через торрент | qTorrent

% Раздел Тема Автор DL S | L
T Фильмы 2015 (Звук TS, Cam, VO, DVO) [ 1.45 GB ] Портниха / The Dressmaker [2015 HDRip] DVO Ворон Скачать
1 | 0

28-11-2019 20:33  

Отключить всю рекламу на сайте

24-02-2016 18:25 Портниха Скачать торрент  



pb.wtf



    Дорогой пользователь! Огромная просьба, поблагодарите релизера, оцените раздачу и оставьте свои комментарий, если Вы скачали Портниха через торрент бесплатно! Внесите свою лепту в развитие PiratBit!
    Комментировать посты могут только пользователи прошедшие не сложную регистрацию
    Показать сообщения:    

    Портниха через торрент
    Скачать бесплатно Портниха
    Портниха скачать торрент
    Портниха смотреть онлайн
    Cкачать фильм Портниха бесплатно
    Портниха скачать торрент в хорошем качестве
    Портниха смотреть онлайн бесплатно в хорошем качестве


    Вы не можете начинать темы
    Вы не можете отвечать на сообщения
    Вы не можете редактировать свои сообщения
    Вы не можете удалять свои сообщения
    Вы не можете голосовать в опросах
    Вы не можете прикреплять файлы к сообщениям
    Вы можете скачивать файлы