Ссылка на приватное зеркало нашего сайта всего за 1$. Внимание количество ограничено!!!

2 сезон

iTunes

1 сезон

1

iTunes

iTunes

iTunes

1 сезон

RePack

30

ИГРА 18+

pack

ВАЖНО

!!Акция!!

Alien_RageХит недели

RePack

MK11
pack

Забери бонус

RePack

jed

!!Акция!!

Alien_Rage

RePack

fifa19

RePack

Assassins Creed: Odyssey

RePack

NEED FOR SPEED™ PAYBACK

4 сезон

9 сезон

Бесстыжие 9 сезон

Все сериалы

все сериалы на PB.wtf

RePack

FAR CRY 5
  

Ночь в музее / Night at the Museum (Шон Леви) [2006 г., фэнтези, комедия, приключения, семейный, 1080p] DUB pb.wtf

Ночь в музее через торрент pb.wtf

Размер: 12.32 GB | Добавлен: 4 года 8 мес. назад | Торрент скачан:18 раз
Скачать  

24-02-2016 20:59 Ночь в музее Скачать торрент  

Ночь в музее / Night at the Museum
Год выпуска: 2006
Производство: США, Великобритания
Жанр: Фэнтези, боевик, комедия
Перевод: Дублированный
Продолжительность: 01:48:38
Режиссер: Шон Леви
Язык субтитров: Русский, украинский, английский
Вид субтитров: Вшитые, отключаемые

Актеры: Бен Стиллер, Джэйк Черри, Карла Гуджино, Робин Уильямс, Стив Куган, Оуэн Уилсон, Дик Ван Дайк, Микки Руни, Билл Коббс, Рики Джервэйс

Описание:
Молодой человек в поисках работы попадает в музей, где приступает к обязанностям ночного сторожа. Оказывается, не такая это простая работа, как могло показаться на первый взгляд. Ведь самое главное - не только не дать никому войти в музей, но и не позволить никому и ничему из музея выйти....



Релиз от: HDClub Рип от SbR
Качество видео: BDRip 1080p
Формат: MKV

Видео: AVC/H.264, 1920x1038, 23.976 fps, 13.1 Mbps
Аудио 1: Русский DTS, 6 ch, 768 kbps | DUB, Blu-ray CEE
Аудио 2: Украинский AC3, 6 ch, 448 kbps | DUB, Blu-ray CEE
Аудио 3: Украинский AC3, 2 ch, 192 kbps | DUB, 1+1
Аудио 4: Английский DTS, 6 ch, 1509 kbps
Аудио 5: Английский AC3, 2 ch, 224 kbps | Комментарии
• Женщина, которая сидит в рекрутинговом агентстве, — мать Бена Стиллера.
• Несмотря на то, что Бен Стиллер и Оуэн Уилсон частенько вступают в диалог, на съемочной площадке они провели вместе лишь один день. Большинство сцен с Уилсоном были отсняты через три месяца после съемок сцен со Стиллером.
• Первоначально планировалось, что фильм будет снимать Стивен Соммерс.

Код:

General
Unique ID                      : 249875377716490673901554191008717068995 (0xBBFC3F4A86A5EAD29F62E628F3DFDAC3)
Complete name                  : D:\Загрузки\NNM-Club\Night.at.the.Museum.2006.1080p.BluRay.Rus.2xUkr.Eng.HDCLUB-SbR.mkv
Format                         : Matroska
Format version                 : Version 4 / Version 2
File size                      : 12.3 GiB
Duration                       : 1h 48mn
Overall bit rate               : 16.2 Mbps
Movie name                     : Night at the Museum (2006) - Release for HDCLUB by SbR
Encoded date                   : UTC 2015-03-25 09:47:52
Writing application            : mkvmerge v7.7.0 ('Six Voices') 64bit built on Feb 28 2015 23:39:33
Writing library                : libebml v1.3.1 + libmatroska v1.4.2
Attachements                   : cover.jpg

Video
ID                             : 1
Format                         : AVC
Format/Info                    : Advanced Video Codec
Format profile                 : High@L4.1
Format settings, CABAC         : Yes
Format settings, ReFrames      : 4 frames
Codec ID                       : V_MPEG4/ISO/AVC
Duration                       : 1h 48mn
Bit rate                       : 13.1 Mbps
Width                          : 1 920 pixels
Height                         : 1 038 pixels
Display aspect ratio           : 1.85:1
Frame rate mode                : Constant
Frame rate                     : 23.976 fps
Color space                    : YUV
Chroma subsampling             : 4:2:0
Bit depth                      : 8 bits
Scan type                      : Progressive
Bits/(Pixel*Frame)             : 0.275
Stream size                    : 9.69 GiB (79%)
Title                          : Release for HDCLUB
Writing library                : x264 core 146 r2538kMod 121396c
Encoding settings              : cabac=1 / ref=4 / deblock=1:-2:-2 / analyse=0x3:0x133 / me=umh / subme=11 / psy=1 / fade_compensate=0.00 / psy_rd=1.00:0.00 / mixed_ref=1 / me_range=32 / chroma_me=1 / trellis=2 / 8x8dct=1 / cqm=0 / deadzone=21,11 / fast_pskip=0 / chroma_qp_offset=-2 / threads=12 / lookahead_threads=2 / sliced_threads=0 / nr=0 / decimate=1 / interlaced=0 / bluray_compat=0 / constrained_intra=0 / fgo=0 / bframes=8 / b_pyramid=2 / b_adapt=2 / b_bias=0 / direct=3 / weightb=1 / open_gop=0 / weightp=2 / keyint=250 / keyint_min=23 / scenecut=40 / intra_refresh=0 / rc_lookahead=60 / rc=2pass / mbtree=0 / bitrate=13150 / ratetol=1.0 / qcomp=0.70 / qpmin=0 / qpmax=69 / qpstep=4 / cplxblur=20.0 / qblur=0.5 / vbv_maxrate=62500 / vbv_bufsize=78125 / nal_hrd=none / filler=0 / ip_ratio=1.40 / pb_ratio=1.30 / aq=1:0.80
Language                       : English
Default                        : Yes
Forced                         : No
Color range                    : Limited
Color primaries                : BT.709
Transfer characteristics       : BT.709
Matrix coefficients            : BT.709

Audio #1
ID                             : 2
Format                         : DTS
Format/Info                    : Digital Theater Systems
Mode                           : 16
Format settings, Endianness    : Big
Codec ID                       : A_DTS
Duration                       : 1h 48mn
Bit rate mode                  : Constant
Bit rate                       : 768 Kbps
Channel(s)                     : 6 channels
Channel positions              : Front: L C R, Side: L R, LFE
Sampling rate                  : 48.0 KHz
Bit depth                      : 24 bits
Compression mode               : Lossy
Stream size                    : 597 MiB (5%)
Title                          : Dub, Blu-ray CEE
Language                       : Russian
Default                        : Yes
Forced                         : No

Audio #2
ID                             : 3
Format                         : AC-3
Format/Info                    : Audio Coding 3
Mode extension                 : CM (complete main)
Format settings, Endianness    : Big
Codec ID                       : A_AC3
Duration                       : 1h 48mn
Bit rate mode                  : Constant
Bit rate                       : 448 Kbps
Channel(s)                     : 6 channels
Channel positions              : Front: L C R, Side: L R, LFE
Sampling rate                  : 48.0 KHz
Bit depth                      : 16 bits
Compression mode               : Lossy
Stream size                    : 348 MiB (3%)
Title                          : Dub, Blu-ray CEE
Language                       : Ukrainian
Default                        : No
Forced                         : No

Audio #3
ID                             : 4
Format                         : AC-3
Format/Info                    : Audio Coding 3
Mode extension                 : CM (complete main)
Format settings, Endianness    : Big
Codec ID                       : A_AC3
Duration                       : 1h 48mn
Bit rate mode                  : Constant
Bit rate                       : 192 Kbps
Channel(s)                     : 2 channels
Channel positions              : Front: L R
Sampling rate                  : 48.0 KHz
Bit depth                      : 16 bits
Compression mode               : Lossy
Stream size                    : 149 MiB (1%)
Title                          : Dub, 1+1
Language                       : Ukrainian
Default                        : No
Forced                         : No

Audio #4
ID                             : 5
Format                         : DTS
Format/Info                    : Digital Theater Systems
Mode                           : 16
Format settings, Endianness    : Big
Codec ID                       : A_DTS
Duration                       : 1h 48mn
Bit rate mode                  : Constant
Bit rate                       : 1 509 Kbps
Channel(s)                     : 6 channels
Channel positions              : Front: L C R, Side: L R, LFE
Sampling rate                  : 48.0 KHz
Bit depth                      : 24 bits
Compression mode               : Lossy
Stream size                    : 1.15 GiB (9%)
Language                       : English
Default                        : No
Forced                         : No

Audio #5
ID                             : 6
Format                         : AC-3
Format/Info                    : Audio Coding 3
Mode extension                 : CM (complete main)
Format settings, Endianness    : Big
Codec ID                       : A_AC3
Duration                       : 1h 48mn
Bit rate mode                  : Constant
Bit rate                       : 224 Kbps
Channel(s)                     : 2 channels
Channel positions              : Front: L R
Sampling rate                  : 48.0 KHz
Bit depth                      : 16 bits
Compression mode               : Lossy
Stream size                    : 174 MiB (1%)
Title                          : Commentary
Language                       : English
Default                        : No
Forced                         : No

Text #1
ID                             : 7
Format                         : UTF-8
Codec ID                       : S_TEXT/UTF8
Codec ID/Info                  : UTF-8 Plain Text
Title                          : Captions
Language                       : Russian
Default                        : Yes
Forced                         : No

Text #2
ID                             : 8
Format                         : UTF-8
Codec ID                       : S_TEXT/UTF8
Codec ID/Info                  : UTF-8 Plain Text
Language                       : Russian
Default                        : No
Forced                         : No

Text #3
ID                             : 9
Format                         : UTF-8
Codec ID                       : S_TEXT/UTF8
Codec ID/Info                  : UTF-8 Plain Text
Title                          : Captions
Language                       : Ukrainian
Default                        : No
Forced                         : No

Text #4
ID                             : 10
Format                         : UTF-8
Codec ID                       : S_TEXT/UTF8
Codec ID/Info                  : UTF-8 Plain Text
Language                       : Ukrainian
Default                        : No
Forced                         : No

Text #5
ID                             : 11
Format                         : UTF-8
Codec ID                       : S_TEXT/UTF8
Codec ID/Info                  : UTF-8 Plain Text
Language                       : English
Default                        : No
Forced                         : No

Text #6
ID                             : 12
Format                         : UTF-8
Codec ID                       : S_TEXT/UTF8
Codec ID/Info                  : UTF-8 Plain Text
Title                          : Commentary
Language                       : Russian
Default                        : No
Forced                         : No

Menu
00:00:00.000                   : en:Main Titles
00:03:10.815                   : en:Ordinary Guy
00:08:35.139                   : en:Job Interview
00:14:18.899                   : en:The Grand Tour
00:17:18.495                   : en:First Night in the Museum
00:24:18.832                   : en:The Instruction Manual
00:31:54.746                   : en:Miniature People
00:35:57.154                   : en:Teddy Roosevelt
00:41:28.402                   : en:History Lesson
00:47:53.245                   : en:Evil Scheme
00:50:51.298                   : en:Better Prepared
00:55:57.395                   : en:Sakagawea
00:57:21.938                   : en:Open Window
01:02:33.791                   : en:The Light of Day
01:06:48.963                   : en:Revealing the Secret
01:13:15.474                   : en:Thieves
01:18:00.759                   : en:Ahkmenrah Awakens
01:21:45.483                   : en:Attila the Hun
01:24:44.662                   : en:A True Leader
01:27:21.653                   : en:Protecting the Museum
01:31:31.652                   : en:Stopping Cecil
01:34:04.847                   : en:Getting Home Safely
01:38:54.136                   : en:A Great Man
01:44:04.696                   : en:End Titles

pb.wtf



Скачать Ночь в музее через торрент http://pic1.kartinco.top/images/10/gf46k.jpg Скачать фильм Ночь в музее через торрент бесплантно в хорошем качестве Описание: Молодой человек в поисках работы попадает в музей, где приступает к обязанностям ночного сторожа. Оказывается, не такая это ... 10 10 2
Торрент: Зарегистрирован [2016-02-24 20:59] · скачан: 18 раз
Статус: √ проверено
Размер: 12.32 GB
Как cкачать? Как скачать Ночь в музее через торрент | qTorrent

% Раздел Тема Автор DL S | L
Ultra HD (UHD: 2K, 4K, 8K) — видео сверхвысокой чёткости [ 19.08 GB ] Ночь в музее: Секрет гробницы / Night at the Museum: Secret of the Tomb [2014 UHD WEB-DL 2160p] [SDR] DUB + AVO [В.Котов] sheker187 Скачать
1 | 0
Сборники (HD Video) [ 94 GB ] Ночь в Музее. Трилогия / Night at the museum. Trilogy [2006 2009 2014 BDRemux 1080p] VO+AVO+DVO+MVO+DUB bober100 Скачать
1 | 0
Фильмы 2006-2008 [ 1.46 GB ] Ночь в музее / Night at the Museum [2006 BDRip] [DVO] killermax2013 Скачать
1 | 0
Фильмы [HD 720p, 1080p] (Хороший звук DUB, MVO) [ 14.48 GB ] Ночь в музее 2 / Night at the Museum: Battle of the Smithsonian [2009 1080p] DUB den7z8 Скачать
1 | 0
Фильмы [HD 720p, 1080p] (Хороший звук DUB, MVO) [ 11.17 GB ] Ночь в музее: Секрет гробницы / Night at the Museum: Secret of the Tomb [2014 BDRip 1080p] 2xDub + Original + Sub Seedtank Скачать
1 | 0
Фильмы [HD 720p, 1080p] (Хороший звук DUB, MVO) [ 7.75 GB ] Ночь в музее: Секрет гробницы / Night at the Museum: Secret of the Tomb [2014 BDRip 1080p] DUB _denis_100 Скачать
2 | 0
Фильмы (Blu-ray, BD-Remux, HDDVD) [ 24.73 GB ] Ночь в музее: Секрет гробницы / Night at the Museum: Secret of the Tomb [2014 BD Remux] DUB Ворон Скачать
1 | 0

28-11-2019 20:33  

Отключить всю рекламу на сайте

    Дорогой пользователь! Огромная просьба, поблагодарите релизера, оцените раздачу и оставьте свои комментарий, если Вы скачали Ночь в музее через торрент бесплатно! Внесите свою лепту в развитие PiratBit!
    Комментировать посты могут только пользователи прошедшие не сложную регистрацию
    Показать сообщения:    

    Ночь в музее через торрент
    Скачать бесплатно Ночь в музее
    Ночь в музее скачать торрент
    Ночь в музее смотреть онлайн
    Cкачать фильм Ночь в музее бесплатно
    Ночь в музее скачать торрент в хорошем качестве
    Ночь в музее смотреть онлайн бесплатно в хорошем качестве


    Вы не можете начинать темы
    Вы не можете отвечать на сообщения
    Вы не можете редактировать свои сообщения
    Вы не можете удалять свои сообщения
    Вы не можете голосовать в опросах
    Вы не можете прикреплять файлы к сообщениям
    Вы можете скачивать файлы