Ссылка на приватное зеркало нашего сайта всего за 1$. Внимание количество ограничено!!!

2 сезон

iTunes

1 сезон

1

iTunes

iTunes

iTunes

1 сезон

RePack

30

ИГРА 18+

pack

ВАЖНО

!!Акция!!

Alien_RageХит недели

RePack

MK11
pack

Забери бонус

RePack

jed

!!Акция!!

Alien_Rage

RePack

fifa19

RePack

Assassins Creed: Odyssey

RePack

NEED FOR SPEED™ PAYBACK

4 сезон

9 сезон

Бесстыжие 9 сезон

Все сериалы

все сериалы на PB.wtf

RePack

FAR CRY 5
  

Ночь в музее 2 / Night at the Museum: Battle of the Smithsonian (Шон Леви) [2009 г., фэнтези, комедия, приключения, семейный, 1080p] DUB pb.wtf

Ночь в музее 2 через торрент pb.wtf

Размер: 14.48 GB | Добавлен: 4 года 8 мес. назад | Торрент скачан:31 раз
Скачать  

24-02-2016 20:59 Ночь в музее 2 Скачать торрент  

Ночь в музее 2 / Night at the Museum: Battle of the Smithsonian
Год выпуска: 2009
Производство: США, Канада
Жанр: Фэнтези, комедия, приключения
Продолжительность: 01:44:43
Перевод: Дублированный
Язык субтитров: Русский, украинский, английский
Вид субтитров: Вшитые, отключаемые
Режиссер: Шон Леви

Актеры: Бен Стиллер, Эми Адамс, Оуэн Уилсон, Хэнк Азария, Робин Уильямс, Кристофер Гест, Ален Шаба, Стив Куган, Джон Бернтал, Билл Хейдер

Описание:
кспонаты Музея Естественной истории живут обычной жизнью. По коридорам бегает скелет динозавра, герои гражданской войны сражаются друг с другом, древние люди добывают огонь, миниатюрные ковбои выясняют отношения с древними Римлянами, Теодор Рузвельт философствует о смысле жизни и ухаживает за индианкой. Никто из этой разношерстной компании даже не представляет, что скоро им предстоит познакомиться с новыми экспонатами. Среди них окажется и та, что разобьет сердце охраннику Ларри.



Релиз от: HDClub Рип от SbR
Качество видео: BDRip 1080p
Формат: MKV

Видео: AVC/H.264, 1920x816, 23.976 fps, 16.5 Mbps
Аудио 1: Русский DTS, 6 ch, 768 kbps | DUB, Blu-ray CEE
Аудио 2: Украинский AC3, 6 ch, 448 kbps | DUB, Blu-ray CEE
Аудио 3: Английский DTS, 6 ch, 1509 kbps
Аудио 4: Английский AC3, 2 ch, 224 kbps | Комментарии
• Режиссер Шон Леви тоже засветился в картине, исполнив камео отца из рекламы, который ищет фонарик.
• По данному фильму была сделана одноименная игра.
• Первый фильм, съёмки которого проходили в Смитсоновском институте.
• Многие экспонаты, присутствующие в архиве Смитсоновского института, не являются частью его коллекции и на самом деле находятся в различных музеях Америки и Европы. Например, статуя мыслителя выставлена на показ в музее Родена в Париже, а балерина Дега находится в Королевской Академии в Лондоне.
• Роль Амелии Эрхарт первоначально должна была сыграть Риз Уизерспун.
• Клинт Ховард, брат известного режиссёра Рона Ховарда, появляется в камео в качестве руководителя центра управления полётами в Центре Аэронавтики.
• Сценаристы Роберт Бен Гарант и Томас Леннон появляются в камео в качестве пионеров авиации братьев Уилбура и Орвила Райт.
• «Ночь в музее 2» это второй фильм, где вместе встречаются на экране Авраам Линкольн и Наполеон Бонапарт. Первым был «Невероятные приключения Билла и Теда» (1989) за двадцать лет до того.

Код:

General
Unique ID                      : 194262340124578132337021973462627293464 (0x922590D7B2492561BB82ACC479869918)
Complete name                  : D:\Загрузки\NNM-Club\Night.at.the.Museum.Battle.of.the.Smithsonian.2009.1080p.BluRay.Rus.Ukr.Eng.HDCLUB-SbR.mkv
Format                         : Matroska
Format version                 : Version 4 / Version 2
File size                      : 14.5 GiB
Duration                       : 1h 44mn
Overall bit rate               : 19.8 Mbps
Movie name                     : Night at the Museum: Battle of the Smithsonian (2009) - Release for HDCLUB by SbR
Encoded date                   : UTC 2015-03-26 12:11:50
Writing application            : mkvmerge v7.7.0 ('Six Voices') 64bit built on Feb 28 2015 23:39:33
Writing library                : libebml v1.3.1 + libmatroska v1.4.2
Attachements                   : cover.jpg / xlog.txt

Video
ID                             : 1
Format                         : AVC
Format/Info                    : Advanced Video Codec
Format profile                 : High@L4.1
Format settings, CABAC         : Yes
Format settings, ReFrames      : 5 frames
Codec ID                       : V_MPEG4/ISO/AVC
Duration                       : 1h 44mn
Bit rate                       : 16.5 Mbps
Width                          : 1 920 pixels
Height                         : 816 pixels
Display aspect ratio           : 2.35:1
Frame rate mode                : Constant
Frame rate                     : 23.976 fps
Color space                    : YUV
Chroma subsampling             : 4:2:0
Bit depth                      : 8 bits
Scan type                      : Progressive
Bits/(Pixel*Frame)             : 0.438
Stream size                    : 12.0 GiB (83%)
Title                          : Release for HDCLUB
Writing library                : x264 core 146 r2538kMod 121396c
Encoding settings              : cabac=1 / ref=5 / deblock=1:-2:-2 / analyse=0x3:0x133 / me=umh / subme=11 / psy=1 / fade_compensate=0.00 / psy_rd=1.00:0.00 / mixed_ref=1 / me_range=32 / chroma_me=1 / trellis=2 / 8x8dct=1 / cqm=0 / deadzone=21,11 / fast_pskip=1 / chroma_qp_offset=-2 / threads=12 / lookahead_threads=3 / sliced_threads=0 / nr=0 / decimate=1 / interlaced=0 / bluray_compat=0 / constrained_intra=0 / fgo=0 / bframes=11 / b_pyramid=2 / b_adapt=2 / b_bias=0 / direct=1 / weightb=1 / open_gop=0 / weightp=2 / keyint=250 / keyint_min=23 / scenecut=40 / intra_refresh=0 / rc_lookahead=120 / rc=crf / mbtree=1 / crf=20.0000 / qcomp=0.80 / qpmin=0 / qpmax=69 / qpstep=4 / vbv_maxrate=62500 / vbv_bufsize=78125 / crf_max=0.0 / nal_hrd=none / filler=0 / ip_ratio=1.40 / aq=1:0.70
Language                       : English
Default                        : Yes
Forced                         : No
Color range                    : Limited
Color primaries                : BT.709
Transfer characteristics       : BT.709
Matrix coefficients            : BT.709

Audio #1
ID                             : 2
Format                         : DTS
Format/Info                    : Digital Theater Systems
Mode                           : 16
Format settings, Endianness    : Big
Codec ID                       : A_DTS
Duration                       : 1h 44mn
Bit rate mode                  : Constant
Bit rate                       : 768 Kbps
Channel(s)                     : 6 channels
Channel positions              : Front: L C R, Side: L R, LFE
Sampling rate                  : 48.0 KHz
Bit depth                      : 24 bits
Compression mode               : Lossy
Stream size                    : 575 MiB (4%)
Title                          : Dub, Blu-ray СEE
Language                       : Russian
Default                        : Yes
Forced                         : No

Audio #2
ID                             : 3
Format                         : AC-3
Format/Info                    : Audio Coding 3
Mode extension                 : CM (complete main)
Format settings, Endianness    : Big
Codec ID                       : A_AC3
Duration                       : 1h 44mn
Bit rate mode                  : Constant
Bit rate                       : 448 Kbps
Channel(s)                     : 6 channels
Channel positions              : Front: L C R, Side: L R, LFE
Sampling rate                  : 48.0 KHz
Bit depth                      : 16 bits
Compression mode               : Lossy
Stream size                    : 336 MiB (2%)
Title                          : Dub, Blu-ray СEE
Language                       : Ukrainian
Default                        : No
Forced                         : No

Audio #3
ID                             : 4
Format                         : DTS
Format/Info                    : Digital Theater Systems
Mode                           : 16
Format settings, Endianness    : Big
Codec ID                       : A_DTS
Duration                       : 1h 44mn
Bit rate mode                  : Constant
Bit rate                       : 1 509 Kbps
Channel(s)                     : 6 channels
Channel positions              : Front: L C R, Side: L R, LFE
Sampling rate                  : 48.0 KHz
Bit depth                      : 24 bits
Compression mode               : Lossy
Stream size                    : 1.10 GiB (8%)
Language                       : English
Default                        : No
Forced                         : No

Audio #4
ID                             : 5
Format                         : AC-3
Format/Info                    : Audio Coding 3
Mode extension                 : CM (complete main)
Format settings, Endianness    : Big
Codec ID                       : A_AC3
Duration                       : 1h 44mn
Bit rate mode                  : Constant
Bit rate                       : 224 Kbps
Channel(s)                     : 2 channels
Channel positions              : Front: L R
Sampling rate                  : 48.0 KHz
Bit depth                      : 16 bits
Compression mode               : Lossy
Stream size                    : 168 MiB (1%)
Title                          : Commentary
Language                       : English
Default                        : No
Forced                         : No

Text #1
ID                             : 6
Format                         : UTF-8
Codec ID                       : S_TEXT/UTF8
Codec ID/Info                  : UTF-8 Plain Text
Title                          : Captions
Language                       : Russian
Default                        : Yes
Forced                         : No

Text #2
ID                             : 7
Format                         : UTF-8
Codec ID                       : S_TEXT/UTF8
Codec ID/Info                  : UTF-8 Plain Text
Language                       : Russian
Default                        : No
Forced                         : No

Text #3
ID                             : 8
Format                         : UTF-8
Codec ID                       : S_TEXT/UTF8
Codec ID/Info                  : UTF-8 Plain Text
Title                          : Captions
Language                       : Ukrainian
Default                        : No
Forced                         : No

Text #4
ID                             : 9
Format                         : UTF-8
Codec ID                       : S_TEXT/UTF8
Codec ID/Info                  : UTF-8 Plain Text
Language                       : Ukrainian
Default                        : No
Forced                         : No

Text #5
ID                             : 10
Format                         : UTF-8
Codec ID                       : S_TEXT/UTF8
Codec ID/Info                  : UTF-8 Plain Text
Language                       : English
Default                        : No
Forced                         : No

Text #6
ID                             : 11
Format                         : UTF-8
Codec ID                       : S_TEXT/UTF8
Codec ID/Info                  : UTF-8 Plain Text
Title                          : Commentary
Language                       : Russian
Default                        : No
Forced                         : No

Menu
00:00:00.000                   : en:Main Titles/Packing
00:00:02.002                   : en:Informercial King
00:03:31.836                   : en:Natural History 2.0
00:06:00.485                   : en:Last Night
00:08:45.316                   : en:The Smithsonian
00:15:17.374                   : en:Don't Touch!
00:19:01.557                   : en:Gaining Access
00:23:06.343                   : en:Back to Life
00:27:18.803                   : en:The Cube of Rubik
00:30:10.058                   : en:Custer's Strategy
00:34:27.273                   : en:Through the Frame
00:35:53.359                   : en:New Recruits
00:39:35.831                   : en:Captured
00:45:25.514                   : en:The Other Teddy
00:50:48.462                   : en:No Thanks
00:56:06.821                   : en:Honest Abe
00:59:42.245                   : en:Bobblehead Physicists
01:03:09.243                   : en:3.14159265
01:05:57.328                   : en:Wonderful Amelia
01:08:16.258                   : en:Magic Tablet
01:12:20.294                   : en:Big Rescue
01:18:32.916                   : en:Battle of the Smithsonian
01:20:42.963                   : en:Key to Happiness
01:30:05.858                   : en:Young Inventor
01:39:43.477                   : en:End Titles

pb.wtf



Скачать Ночь в музее 2 через торрент http://pic1.kartinco.top/images/10/nmfsc.jpg Скачать фильм Ночь в музее 2 через торрент бесплантно в хорошем качестве Описание: кспонаты Музея Естественной истории живут обычной жизнью. По коридорам бегает скелет динозавра, герои гражданской войны сражаются ... 7 10 3
Торрент: Зарегистрирован [2016-02-24 20:59] · скачан: 31 раз
Статус: √ проверено
Размер: 14.48 GB
Как cкачать? Как скачать Ночь в музее 2 через торрент | qTorrent

% Раздел Тема Автор DL S | L
Фильмы [HD 720p, 1080p] (Хороший звук DUB, MVO) [ 2.19 GB ] Ночь в музее 2 / Night at the Museum: Battle of the Smithsonian [2009 HDRip-AVC] [720p] killermax2013 Скачать
1 | 0
Фильмы 2009 [ 1.37 GB ] Ночь в музее 2 / Night at the Museum: Battle of the Smithsonian [2009 DVDRip DUB лицензия] ALIK1989 Скачать
1 | 0

28-11-2019 20:33  

Отключить всю рекламу на сайте

    Дорогой пользователь! Огромная просьба, поблагодарите релизера, оцените раздачу и оставьте свои комментарий, если Вы скачали Ночь в музее 2 через торрент бесплатно! Внесите свою лепту в развитие PiratBit!
    Комментировать посты могут только пользователи прошедшие не сложную регистрацию
    Показать сообщения:    

    Ночь в музее 2 через торрент
    Скачать бесплатно Ночь в музее 2
    Ночь в музее 2 скачать торрент
    Ночь в музее 2 смотреть онлайн
    Cкачать фильм Ночь в музее 2 бесплатно
    Ночь в музее 2 скачать торрент в хорошем качестве
    Ночь в музее 2 смотреть онлайн бесплатно в хорошем качестве


    Вы не можете начинать темы
    Вы не можете отвечать на сообщения
    Вы не можете редактировать свои сообщения
    Вы не можете удалять свои сообщения
    Вы не можете голосовать в опросах
    Вы не можете прикреплять файлы к сообщениям
    Вы можете скачивать файлы